Welcome Guest ( Log In | Register )

> Releases Upload / Добавление релизов

Добавить релиз тут / Click here to add release
Рекомендованные обменники / Recommended file shares

> L'homme Absurde - Belong (2020), Post-Black Metal (D4)
post Jan 16 2020, 13:04:29
Post #1

Serial Uploader
Group Icon
Group: V.I.P
Posts: 36,878
Releases: 35064
From: Lithuania
On Forums: 11 years 7 months
Thanks: 412178 time(s)
Lithuania


(IMG:http://metalarea.org/images/audiocovers/2020_Jan/acov_tid332702_thumb.jpg)

*Artist: L'homme Absurde
*Album: Belong
*Year: 2020
*Genre: Post-Black Metal
*Country: Russian Federation (IMG:http://metalarea.org/forum/style_images/flags/Russian%20Federation.png)
*Format: mp3@CBR320kbps
*Size: 93MB

Tracklist:
01. 0 02:57
02. Rot 05:33
03. Belong 06:27
04. Separation 05:13
05. Departure 05:56
06. Burn 05:48
07. Forsaken 05:13
08. Sanctuary 03:31
******************************
Total playing time: 40:38


Preview 2

Technical info
(IMG:http://metalarea.org/images/spectrogram/2020_Jan/6be1756e4393997fc751ee5a6eea70c2.png)
Input File: 02. Rot.mp3
Channels : 2
Sample Rate : 44100
Precision : 16-bit
Duration : 00:05:33.16 = 14692400 samples = 24987.1 CDDA sectors
File Size : 13.4M
Bit Rate : 322k
Sample Encoding: MPEG audio (layer I, II or III)
Comments :
Title=Rot
Artist=L'homme Absurde
Album=Belong
Tracknumber=2
Year=2020-01-17
Genre=Metal
Discnumber=1



Register


Go to the top of the page
  Insert nick Quick quote
+Quote Post
 
Start new topic
Replies (1 - 4)
post Jan 16 2020, 15:44:14
Post #2

Пять Литров
*****
Group: Металариец
Posts: 424
Releases: 0
From: г.Таганрог
On Forums: 13 years 9 months
Thanks: 76 time(s)
Russian Federation


Как ни странно, очень достойная работа. Мне понравилось. Будем вникать.
Go to the top of the page
  Insert nick Quick quote
+Quote Post
post Jan 22 2020, 17:09:02
Post #3

Ледоруб
**************
Group: Металариец
Posts: 23,854
Releases: 0
From: Санкт-Петербург
On Forums: 10 years 4 months
Thanks: 8058 time(s)
Russian Federation


Запустил процесс скачивания, держу в курсе.
Go to the top of the page
  Insert nick Quick quote
+Quote Post
post Jan 22 2020, 17:14:28
Post #4

Правь статус, ####!111
**************
Group: Металариец
Posts: 44,973
Releases: 694
On Forums: 10 years 7 months
Thanks: 36503 time(s)
Russian Federation


ЦИТАТА(6666666 @ Jan 22 2020, 19:09:02) *
Запустил процесс скачивания, держу в курсе.


Стало качаться с сих обменникоф? (IMG:style_emoticons/default/17.gif)
Go to the top of the page
  Insert nick Quick quote
+Quote Post
post Jan 22 2020, 17:33:37
Post #5

Ледоруб
**************
Group: Металариец
Posts: 23,854
Releases: 0
From: Санкт-Петербург
On Forums: 10 years 4 months
Thanks: 8058 time(s)
Russian Federation


С Меги всегда качалось.
Go to the top of the page
  Insert nick Quick quote
+Quote Post

Reply to this topicStart new topic
1 User(s) are reading this topic (1 Guests and 0 Anonymous Users)
0 Members:

 



- Lo-Fi Version Support form
Copyrights and abuse reports form
Time is now: 29th January 2020 - 00:47:57