Welcome Guest ( Log In | Register )

> Releases Upload / Добавление релизов

Добавить релиз тут / Click here to add release
Рекомендованные обменники / Recommended file shares

> Level H - Conquer [ep] (2020), Melodic Death Metal
post Jan 16 2020, 13:14:57
Post #1

Serial Uploader
Group Icon
Group: V.I.P
Posts: 36,848
Releases: 35034
From: Lithuania
On Forums: 11 years 7 months
Thanks: 411699 time(s)
Lithuania


(IMG:http://metalarea.org/images/audiocovers/2020_Jan/acov_tid332703_thumb.jpg)

*Artist: Level H
*Album: Conquer [ep]
*Year: 2020
*Genre: Melodic Death Metal
*Country: Australia (IMG:http://metalarea.org/forum/style_images/flags/Australia.png)
*Format: mp3@CBR320kbps
*Size: 46MB

Tracklist:
01. Conquer
02. The Sundew Trial
03. Vigorous
04. Aurora
05. Sons of Odin
******************************
Total playing time: 19:58



Technical info
(IMG:http://metalarea.org/images/spectrogram/2020_Jan/0fd45f1889c0867a8b1b5e0c6de1de7c.png)
Input File: 02. The Sundew Trial.mp3
Channels : 2
Sample Rate : 44100
Precision : 16-bit
Duration : 00:05:18.09 = 14027637 samples = 23856.5 CDDA sectors
File Size : 12.9M
Bit Rate : 324k
Sample Encoding: MPEG audio (layer I, II or III)
Comments :
Title=The Sundew Trial
Artist=Level H
Album=Conquer
Tracknumber=2/5
Year=2020
Genre=9
Discnumber=1/1



Register


Go to the top of the page
  Insert nick Quick quote
+Quote Post
 
Start new topic
Replies (1 - 1)
post Jan 16 2020, 14:43:48
Post #2

Маньяк
**********
Group: Металариец
Posts: 1,103
Releases: 0
On Forums: 8 years 8 months
Thanks: 497 time(s)
Unknown


Go to the top of the page
  Insert nick Quick quote
+Quote Post

Reply to this topicStart new topic
1 User(s) are reading this topic (1 Guests and 0 Anonymous Users)
0 Members:

 



- Lo-Fi Version Support form
Copyrights and abuse reports form
Time is now: 24th January 2020 - 23:54:47