Welcome Guest ( Log In | Register )

> Releases Upload / Добавление релизов

Добавить релиз тут / Click here to add release
Рекомендованные обменники / Recommended file shares

 
Reply to this topicStart new topic
> Again - This Universe Wasn't Ours [demo] (2020), Black Metal
post Jan 16 2020, 13:26:50
Post #1

Serial Uploader
Group Icon
Group: V.I.P
Posts: 37,011
Releases: 35193
From: Lithuania
On Forums: 11 years 8 months
Thanks: 414546 time(s)
Lithuania


(IMG:http://metalarea.org/images/audiocovers/2020_Jan/acov_tid332704_thumb.jpg)

*Artist: Again
*Album: This Universe Wasn't Ours [demo]
*Year: 2020
*Genre: Black Metal
*Country: United Kingdom (IMG:http://metalarea.org/forum/style_images/flags/United%20Kingdom.png)
*Format: mp3@CBR320kbps
*Size: 32MB

Tracklist:
01. This Universe Wasn't Ours 11:06
02. We Can Spiral 03:02
******************************
Total playing time: 14:08




Technical info
(IMG:http://metalarea.org/images/spectrogram/2020_Jan/ff1600ef14a644f31b3a45885e2597a5.png)
Input File: 01. This Universe Wasn\'t Ours.mp3
Channels : 2
Sample Rate : 44100
Precision : 16-bit
Duration : 00:11:06.37 = 29386829 samples = 49977.6 CDDA sectors
File Size : 26.7M
Bit Rate : 320k
Sample Encoding: MPEG audio (layer I, II or III)
Comments :
Title=This Universe Wasn't Ours
Artist=Again
Album=This Universe Wasn't Ours (Demo)
Tracknumber=1
Year=2020



Register


Go to the top of the page
  Insert nick Quick quote
+Quote Post

Reply to this topicStart new topic
1 User(s) are reading this topic (1 Guests and 0 Anonymous Users)
0 Members:

 



- Lo-Fi Version Support form
Copyrights and abuse reports form
Time is now: 21st February 2020 - 02:14:05