Welcome Guest ( Log In | Register )

> Releases Upload / Добавление релизов

Добавить релиз тут / Click here to add release
Рекомендованные обменники / Recommended file shares

 
Reply to this topicStart new topic
> Psychosia - Last (2016), Death Metal/Grindcore/Sludge
post Jan 16 2020, 13:28:29
Post #1

Мегаманьяк
***********
Group: Металариец
Posts: 1,760
Releases: 154
From: Omsk, Siberia
On Forums: 10 years 10 months
Thanks: 3344 time(s)
Russian Federation


(IMG:http://metalarea.org/images/audiocovers/2020_Jan/acov_tid332705_thumb.jpg)

*Artist: Psychosia
*Album: Last
*Year: 2016
*Genre: Death Metal/Grindcore/Sludge
*Country: Austria (IMG:http://metalarea.org/forum/style_images/flags/Austria.png)
*Format: mp3@CBR320kbps
*Size: 102MB

Tracklist:
1. Psychose 02:50
2. Last 05:40
3. Freundschaft 01:42
4. Ausgebrannt 02:58
5. Kampf 05:14
6. No Place Of Glory 04:46
7. Damals 02:58
8. Heute 03:12
9. Friends 07:50
10. Licht 01:42
11. Besserung 02:04
12. Frei 02:43
******************************
Total playing time: 43:45



(IMG:http://metalarea.org/images/youtube.png)

Extended info
Corbinian "Corbi" Pohl - vocals (tracks 4, 6, 7, 9, 11, 12), guitars, bass

Guest members:
Lukas Haidinger - drums (tracks 1, 2, 5, 9, 11), vocals (tracks 1, 2, 3, 6, 9, 10, 12)
Knüppelheinz - vocals (track 1)
Armin Schweiger - drums (tracks 3, 4, 7, 8), vocals (tracks 8, 10)
Hans "Sick Hanson" Brunhuber - vocals (tracks 3, 7, 10)
Veit Humer - vocals (tracks 4, 7)
Christoph Steinlechner - guitar solo (track 4)
Stephan "Bloodsux" Ecker - vocals (tracks 5, 11)
Roland "Cunzla" Kössler - drums (track 6)
Martin Zeller - drums (tracks 10, 12)


Technical info
(IMG:http://metalarea.org/images/spectrogram/2020_Jan/ac7cb66c3f4fd84ec74c5f0c853df6ea.png)
Input File: 01 Psychose.mp3
Channels : 2
Sample Rate : 44100
Precision : 16-bit
Duration : 00:02:50.93 = 7537925 samples = 12819.6 CDDA sectors
File Size : 7.00M
Bit Rate : 328k
Sample Encoding: MPEG audio (layer I, II or III)
Comments :
Title=Psychose
Artist=Psychosia
Album=Last
Tracknumber=1
Year=2016
Genre=Deathgrind/Sludge



Register


Go to the top of the page
  Insert nick Quick quote
+Quote Post

Reply to this topicStart new topic
1 User(s) are reading this topic (1 Guests and 0 Anonymous Users)
0 Members:

 



- Lo-Fi Version Support form
Copyrights and abuse reports form
Time is now: 25th January 2020 - 00:11:00