Welcome Guest ( Log In | Register )

> Garganjua - Toward The Sun (2020), Stoner/Doom Metal (D4)
post Jan 16 2020, 13:43:06
Post #1

Serial Uploader
Group Icon
Group: V.I.P
Posts: 37,112
Releases: 35296
From: Lithuania
On Forums: 11 years 9 months
Thanks: 418060 time(s)
Lithuania


(IMG:http://metalarea.org/images/audiocovers/2020_Jan/acov_tid332706_thumb.jpg)

*Artist: Garganjua
*Album: Toward The Sun
*Year: 2020
*Genre: Stoner/Doom Metal
*Country: United Kingdom (IMG:http://metalarea.org/forum/style_images/flags/United%20Kingdom.png)
*Format: mp3@CBR320kbps
*Size: 112MB

Tracklist:
01. Transcending 02:10
02. The New Sun 08:42
03. Mire 08:42
04. Transcendence 05:04
05. Light Bearer 06:27
06. Controlling Waves 08:10
07. To Ascend (awakening) 09:25
******************************
Total playing time: 48:40




Technical info
(IMG:http://metalarea.org/images/spectrogram/2020_Jan/fd475694f706095a05961a6210859fcc.png)
Input File: 05. Light Bearer.mp3
Channels : 2
Sample Rate : 44100
Precision : 16-bit
Duration : 00:06:27.19 = 17074859 samples = 29038.9 CDDA sectors
File Size : 15.6M
Bit Rate : 322k
Sample Encoding: MPEG audio (layer I, II or III)
Comments :
Title=Light Bearer
Artist=Garganjua
Album=Toward the Sun
Tracknumber=5
Year=2020-01-17
Genre=Metal
Discnumber=1



Register


Go to the top of the page
  Insert nick Quick quote
+Quote Post
 
Start new topic
Replies (1 - 2)
post Mar 13 2020, 13:54:01
Post #2

Group: Дух
Posts: 4
Releases: 0
On Forums: 8 years 10 months
Thanks: 0 time(s)
Portugal


Any chance to re-up?
Go to the top of the page
  Insert nick Quick quote
+Quote Post
post Mar 16 2020, 23:30:14
Post #3

Шесть Литров
******
Group: Металариец
Posts: 672
Releases: 1
From: Россия, Санкт-Петербург
On Forums: 11 years 10 months
Thanks: 84 time(s)
Russian Federation


Перезалейте, пожалуйста
Go to the top of the page
  Insert nick Quick quote
+Quote Post

Reply to this topicStart new topic
1 User(s) are reading this topic (1 Guests and 0 Anonymous Users)
0 Members:

 



- Lo-Fi Version Support form
Copyrights and abuse reports form
Time is now: 31st March 2020 - 21:07:48