Welcome Guest ( Log In | Register )

> Releases Upload / Добавление релизов

Добавить релиз тут / Click here to add release
Рекомендованные обменники / Recommended file shares

> Elfika - Secretum Secretorum (2020), Symphonic Metal
post Jan 16 2020, 13:52:57
Post #1

Serial Uploader
Group Icon
Group: V.I.P
Posts: 36,878
Releases: 35064
From: Lithuania
On Forums: 11 years 7 months
Thanks: 412177 time(s)
Lithuania


(IMG:http://metalarea.org/images/audiocovers/2020_Jan/acov_tid332707_thumb.jpg)

*Artist: Elfika
*Album: Secretum Secretorum
*Year: 2020
*Genre: Symphonic Metal
*Country: France (IMG:http://metalarea.org/forum/style_images/flags/France.png)
*Format: mp3@CBR320kbps
*Size: 122MB

Tracklist:
01. The Chamber Of Secrets 01:36
02. So Human 06:49
03. Angel 06:20
04. The Other 08:27
05. Broken Wings 07:38
06. Dark Virgin 12:54
07. Inferno 05:14
08. One Day 04:06
******************************
Total playing time: 53:04



Technical info
(IMG:http://metalarea.org/images/spectrogram/2020_Jan/9eb30c109f80f4cc8abe0f06dd7bfbce.png)
Input File: 2 - So Human.mp3
Channels : 2
Sample Rate : 44100
Precision : 16-bit
Duration : 00:06:49.16 = 18043736 samples = 30686.6 CDDA sectors
File Size : 16.5M
Bit Rate : 322k
Sample Encoding: MPEG audio (layer I, II or III)
Comments :
Title=So Human
Artist=Elfika
Album=Secretum Secretorum
Tracknumber=2
Year=2020
Genre=Metal
Discnumber=1



Register


Go to the top of the page
  Insert nick Quick quote
+Quote Post
 
Start new topic
Replies (1 - 2)
post Jan 16 2020, 17:44:37
Post #2

Девять Литров
*********
Group: Металариец
Posts: 995
Releases: 4
From: Харьков
On Forums: 11 years 5 months
Thanks: 347 time(s)
Ukraine



Эльфийка...


Thanks:
(1) ace73pq,
Go to the top of the page
  Insert nick Quick quote
+Quote Post
post Jan 16 2020, 21:00:20
Post #3

MDM-Thrash Metal
**************
Group: Металариец
Posts: 9,224
Releases: 770
From: Одесса
On Forums: 12 years 5 months
Thanks: 20717 time(s)
Ukraine


Cloud Mail 320:

Register


Thanks:
(1) AlexSmith,
Go to the top of the page
  Insert nick Quick quote
+Quote Post

Reply to this topicStart new topic
1 User(s) are reading this topic (1 Guests and 0 Anonymous Users)
0 Members:

 



- Lo-Fi Version Support form
Copyrights and abuse reports form
Time is now: 29th January 2020 - 00:08:51