Welcome Guest ( Log In | Register )

> Releases Upload / Добавление релизов

Добавить релиз тут / Click here to add release
Рекомендованные обменники / Recommended file shares

> Three Days In Hell - A Bloody Retelling (2020), Death Metal
post Jan 16 2020, 14:04:19
Post #1

Serial Uploader
Group Icon
Group: V.I.P
Posts: 36,878
Releases: 35064
From: Lithuania
On Forums: 11 years 7 months
Thanks: 412174 time(s)
Lithuania


(IMG:http://metalarea.org/images/audiocovers/2020_Jan/acov_tid332708_thumb.jpg)

*Artist: Three Days In Hell
*Album: A Bloody Retelling
*Year: 2020
*Genre: Death Metal
*Country: United States (IMG:http://metalarea.org/forum/style_images/flags/United%20States.png)
*Format: mp3@CBR320kbps
*Size: 74MB

Tracklist:
01. The Great Sin 03:10
02. A Midnight Parable 03:42
03. Under The Current 02:20
04. Brimstone 03:40
05. The Hammer Falls 02:43
06. Crushed Beneath Debris 03:28
07. Split the Pillars 03:26
08. Beheading the Nephilim 03:27
09. Rain Down Fire 03:01
10. The Lion's Jaws 02:44
******************************
Total playing time: 31:41



Technical info
(IMG:http://metalarea.org/images/spectrogram/2020_Jan/5bd7426416fbcb179a9344aa14a0ea0f.png)
Input File: 06. Crushed Beneath Debris.mp3
Channels : 2
Sample Rate : 44100
Precision : 16-bit
Duration : 00:03:28.84 = 9209712 samples = 15662.8 CDDA sectors
File Size : 8.42M
Bit Rate : 323k
Sample Encoding: MPEG audio (layer I, II or III)
Comments :
Title=Crushed Beneath Debris
Artist=Three Days in Hell
Album=A Bloody Retelling
Tracknumber=6/11
Year=2020
Discnumber=1/1



Register


Go to the top of the page
  Insert nick Quick quote
+Quote Post
 
Start new topic
Replies (1 - 1)
post Jan 26 2020, 13:02:31
Post #2

brutalcesar
**************
Group: Металариец
Posts: 17,870
Releases: 67
From: Рязань
On Forums: 11 years 1 week
Thanks: 9481 time(s)
Russian Federation


Совершенно стрёмный и дилетантский грайнд
Go to the top of the page
  Insert nick Quick quote
+Quote Post

Reply to this topicStart new topic
1 User(s) are reading this topic (1 Guests and 0 Anonymous Users)
0 Members:

 



- Lo-Fi Version Support form
Copyrights and abuse reports form
Time is now: 28th January 2020 - 23:15:11