Welcome Guest ( Log In | Register )

> Releases Upload / Добавление релизов

Добавить релиз тут / Click here to add release
Рекомендованные обменники / Recommended file shares

> Windmill - Dance Of Fire And Freedom (2020), Progressive/Folk Metal
post Jan 16 2020, 14:22:55
Post #1

Serial Uploader
Group Icon
Group: V.I.P
Posts: 36,848
Releases: 35034
From: Lithuania
On Forums: 11 years 7 months
Thanks: 411699 time(s)
Lithuania


(IMG:http://metalarea.org/images/audiocovers/2020_Jan/acov_tid332709_thumb.jpg)

*Artist: Windmill
*Album: Dance Of Fire And Freedom
*Year: 2020
*Genre: Progressive/Folk Metal
*Country: Poland (IMG:http://metalarea.org/forum/style_images/flags/Poland.png)
*Format: mp3@CBR320kbps
*Size: 112MB

Tracklist:
01. Iskry
02. Taniec Ognia i Wolności
03. Triskelion
04. Matoha
05. Nadchodzi Burza
06. Wyraj
07. Północny Wiatr
08. Klątwa Utopca
09. Embers
10. Biesiady Czas (Bonus Track)
11. Stalowy Władca (Bonus Track)
******************************
Total playing time: 49:09



Technical info
(IMG:http://metalarea.org/images/spectrogram/2020_Jan/746c71b992187cbe9a94db95f7b79e15.png)
Input File: 02 - Taniec Ognia i Wolności.mp3
Channels : 2
Sample Rate : 44100
Precision : 16-bit
Duration : 00:05:27.49 = 14442265 samples = 24561.7 CDDA sectors
File Size : 13.2M
Bit Rate : 321k
Sample Encoding: MPEG audio (layer I, II or III)
Comments :
Title=Taniec Ognia i Wolności
Artist=Windmill
Album=Dance of Fire and Freedom
Tracknumber=2
Year=2020
Genre=Metal
Discnumber=1



Register


Go to the top of the page
  Insert nick Quick quote
+Quote Post
 
Start new topic
Replies (1 - 1)
post Jan 17 2020, 08:51:04
Post #2

hearer & reader
**************
Group: Металариец
Posts: 8,294
Releases: 113
From: Moscow
On Forums: 12 years 4 months
Thanks: 7887 time(s)
Russian Federation


Go to the top of the page
  Insert nick Quick quote
+Quote Post

Reply to this topicStart new topic
1 User(s) are reading this topic (1 Guests and 0 Anonymous Users)
0 Members:

 



- Lo-Fi Version Support form
Copyrights and abuse reports form
Time is now: 25th January 2020 - 00:43:11