Welcome Guest ( Log In | Register )

> Releases Upload / Добавление релизов

Добавить релиз тут / Click here to add release
Рекомендованные обменники / Recommended file shares

> Crow Hunter - Somd (2020), Groove/Southern/Stoner Metal
post Jan 16 2020, 14:31:30
Post #1

Serial Uploader
Group Icon
Group: V.I.P
Posts: 36,848
Releases: 35034
From: Lithuania
On Forums: 11 years 7 months
Thanks: 411699 time(s)
Lithuania


(IMG:http://metalarea.org/images/audiocovers/2020_Jan/acov_tid332710_thumb.jpg)

*Artist: Crow Hunter
*Album: Somd
*Year: 2020
*Genre: Groove/Southern/Stoner Metal
*Country: United States (IMG:http://metalarea.org/forum/style_images/flags/United%20States.png)
*Format: mp3@CBR320kbps
*Size: 118MB

Tracklist:
01. Chop 'n' Drop
02. Sound Off
03. Crow Hunter (Self-Titled)
04. Mariner (Of the High Seas)
05. Protect the King
06. Loch Ness
07. Shoot the Gap
08. American Pressure
09. Steel Your Mind
10. Kilimanjaro
11. Bandit
12. Sludge Hammer
******************************
Total playing time: 51:24



Technical info
(IMG:http://metalarea.org/images/spectrogram/2020_Jan/db4f559b7b947d639be1912f0324ae29.png)
Input File: 2 - Sound Off.mp3
Channels : 2
Sample Rate : 44100
Precision : 16-bit
Duration : 00:04:30.20 = 11915776 samples = 20264.9 CDDA sectors
File Size : 10.9M
Bit Rate : 323k
Sample Encoding: MPEG audio (layer I, II or III)
Comments :
Title=Sound Off
Artist=Crow Hunter
Album=Somd
Tracknumber=2
Year=2020
Genre=Rock/Metal
Discnumber=1



Register


Go to the top of the page
  Insert nick Quick quote
+Quote Post
 
Start new topic
Replies (1 - 1)
post Jan 16 2020, 17:43:17
Post #2

Девять Литров
*********
Group: Металариец
Posts: 995
Releases: 4
From: Харьков
On Forums: 11 years 5 months
Thanks: 347 time(s)
Ukraine


Go to the top of the page
  Insert nick Quick quote
+Quote Post

Reply to this topicStart new topic
1 User(s) are reading this topic (1 Guests and 0 Anonymous Users)
0 Members:

 



- Lo-Fi Version Support form
Copyrights and abuse reports form
Time is now: 25th January 2020 - 01:16:59