Welcome Guest ( Log In | Register )

 
Reply to this topicStart new topic
> Exa - Cut The Past (2020), Thrash Metal
post Jan 16 2020, 14:33:17
Post #1

Правь статус, ####!111
**************
Group: Металариец
Posts: 22,349
Releases: 15481
From: Г.Харьков
On Forums: 8 years 2 months
Thanks: 283533 time(s)
Unknown


(IMG:http://metalarea.org/images/audiocovers/2020_Jan/acov_tid332711_thumb.jpg)

*Artist: Exa
*Album: Cut The Past
*Year: 2020
*Genre: Thrash Metal
*Country: Germany (IMG:http://metalarea.org/forum/style_images/flags/Germany.png)
*Format: mp3@CBR320kbps
*Size: 86MB

Tracklist:
01. Fuel for Fire
02. Loss of Humanity
03. Welcome to the Pit
04. Unbroken
05. The Summoner
06. Narcotic Wheel
07. Dicktators
08. Face the Other Side
09. Lesson in Arrogance
10. When Flesh Tears Up
******************************
Total playing time: 37:15




Extended info
Tamino Bosse Bass
Leon Pester Drums
Tom Exa Guitars (lead), Vocals
Johannes Lortz Guitars (rhythm)



Technical info
(IMG:http://metalarea.org/images/spectrogram/2020_Jan/6f4aa438b1590a24b1bb20517f01d2cd.png)
Input File: 04 - Unbroken.mp3
Channels : 2
Sample Rate : 44100
Precision : 16-bit
Duration : 00:03:51.43 = 10206107 samples = 17357.3 CDDA sectors
File Size : 9.34M
Bit Rate : 323k
Sample Encoding: MPEG audio (layer I, II or III)
Comments :
Title=Unbroken
Artist=Exa
Album=Cut the Past
Tracknumber=4
Year=2020
Genre=Metal
Discnumber=1



Register


Go to the top of the page
  Insert nick Quick quote
+Quote Post

Reply to this topicStart new topic
1 User(s) are reading this topic (1 Guests and 0 Anonymous Users)
0 Members:

 



- Lo-Fi Version Support form
Copyrights and abuse reports form
Time is now: 14th July 2020 - 04:21:26