Welcome Guest ( Log In | Register )

 
Reply to this topicStart new topic
> Death Metal Rabbits - Fuwafuwa Usagi-Chan-Tachi (2020), Death Metal/Grindcore
post Jan 16 2020, 14:57:56
Post #1

Serial Uploader
Group Icon
Group: V.I.P
Posts: 37,221
Releases: 35404
From: Lithuania
On Forums: 12 years 1 month
Thanks: 421574 time(s)
Lithuania


(IMG:http://metalarea.org/images/audiocovers/2020_Jan/acov_tid332713_thumb.jpg)

*Artist: Death Metal Rabbits
*Album: Fuwafuwa Usagi-Chan-Tachi
*Year: 2020
*Genre: Death Metal/Grindcore
*Country: Russian Federation (IMG:http://metalarea.org/forum/style_images/flags/Russian%20Federation.png)
*Format: mp3@CBR320kbps
*Size: 83MB

Tracklist:
01. Pony With Straponed Head Pretends To Be Unicorn 01:10
02. Aged Princess Leia Leaks To Her Panties With Every Single Sneeze 01:29
03. If Your Band Has A Producer, Get Used To A Cock In Your Ass 01:16
04. Russian Pop Scene Is A Cause For Armageddon To Come 01:16
05. Galactic Conspiracy Of Necromancer-Cats 01:02
06. Last Night I Met An Anime-Hater (It Was A 50 Y.O. Pedophile Who Lived With His Mom) 01:11
07. My Little Penis - Friendship Is Destiny 01:34
08. If Your Daughter Doesn't Like My Little Pony, Just Drown Her In Shit 01:28
09. At My Friend's Wedding, I Wished The Bride Good Alimony 01:12
10. You May Dislike Anime, If You Are Faggot 01:13
11. I Hope Your Children Will Be Born Handless 01:23
12. Pet Them To Death 01:14
13. If A Man Likes To Be Fuck In The Ass, It's No Way To Make Him Stop Loving Deppresive Black 01:24
14. I Used To Be Sepultura Fan, Until They Began To Play Reggae Metal 01:34
15. A Scientist Who Believes In God Is As Preposterous As A White Bluesman 01:35
16. If I Become A Pedophile, I'll Move To Vatican 01:36
17. Instead Of Space Exploration, People Are Keen On Penis And Breast Augmentation 01:24
18. Masturbation On Anime Figures Is The Only Worthy Goal In Life 01:02
19. When The Chinese Conquer The World, Our Band Will Be Shot With A Mortar In Praise Of Mao Tse-Tung 01:25
20. I'd Like To Thank Mortician For My Happy Childhood 01:11
21. My Favorite Kind Of Japanese Sport Is Tawagoto Ni Ken 01:47
22. Desu Metal (Waifu-Core) 06:43
******************************
Total playing time: 35:09

Preview 1


Technical info
(IMG:http://metalarea.org/images/spectrogram/2020_Jan/86498d5fb3511cdcd8d683c0e30b2fcc.png)
Input File: 02. Aged Princess Leia leaks to her panties with every single sneeze.mp3
Channels : 2
Sample Rate : 44100
Precision : 16-bit
Duration : 00:01:29.45 = 3944657 samples = 6708.6 CDDA sectors
File Size : 3.71M
Bit Rate : 332k
Sample Encoding: MPEG audio (layer I, II or III)
Comments :
Title=Aged Princess Leia leaks to her panties with every single sneeze
Artist=Death Metal Rabbits
Album=fuwafuwa usagi-chan-tachi
Tracknumber=2
Year=2020



Register


Go to the top of the page
  Insert nick Quick quote
+Quote Post

Reply to this topicStart new topic
1 User(s) are reading this topic (1 Guests and 0 Anonymous Users)
0 Members:

 



- Lo-Fi Version Support form
Copyrights and abuse reports form
Time is now: 14th July 2020 - 04:38:58