Welcome Guest ( Log In | Register )

 
Reply to this topicStart new topic
> Blood And Brutality - Fatal (2020), Thrash/Death Metal (D6)
post Jan 16 2020, 14:59:34
Post #1

Правь статус, ####!111
**************
Group: Металариец
Posts: 23,190
Releases: 16174
From: Г.Харьков
On Forums: 8 years 4 months
Thanks: 301331 time(s)
Unknown


(IMG:http://metalarea.org/images/audiocovers/2020_Jan/acov_tid332714_thumb.jpg)

*Artist: Blood And Brutality
*Album: Fatal
*Year: 2020
*Genre: Thrash/Death Metal
*Country: United States (IMG:http://metalarea.org/forum/style_images/flags/United%20States.png)
*Format: mp3@CBR320kbps
*Size: 81MB

Tracklist:
1. Witness to Slaughter 02:13
2. Pronouncing Death 03:53
3. Torturous 04:11
4. Black Horizon 05:47
5. Vicious Carnage 03:34
6. The Last Rites 06:11
7. Bloodshed of Man 09:16
8. Epitaph 02:44 instrumental
******************************
Total playing time: 37:49




Extended info
Яęѵ Bass
Max Guitars
See also: Avavago, Serrated, Matt Hates the Box, Reclusive Tendencies, ex-Passion of Death
Jarvis Guitars (lead)
See also: Passion of Death, State of Decay, ex-Avavago, ex-Thothamon
Bryan Arant Vocals, Drums
See also: Avavago, Blackest, Orchestrated Onslaught, Passion of Death, Seid, Serrated, State of Decay, Suicidal, Matt Hates the Box, Reclusive Tendencies


Technical info
(IMG:http://metalarea.org/images/spectrogram/2020_Jan/41ff849b3c1cc4f90aa2b4274c0b1323.png)
Input File: 04. Black Horizon.mp3
Channels : 2
Sample Rate : 44100
Precision : 16-bit
Duration : 00:05:47.61 = 15329469 samples = 26070.5 CDDA sectors
File Size : 14.0M
Bit Rate : 322k
Sample Encoding: MPEG audio (layer I, II or III)
Comments :
Title=Black Horizon
Artist=Blood and Brutality
Album=Fatal
Tracknumber=4/8
Year=2020
Genre=9
Discnumber=1/1



Register


Go to the top of the page
  Insert nick Quick quote
+Quote Post

Reply to this topicStart new topic
1 User(s) are reading this topic (1 Guests and 0 Anonymous Users)
0 Members:

 



- Lo-Fi Version Support form
Copyrights and abuse reports form
Time is now: 23rd September 2020 - 09:45:14