Welcome Guest ( Log In | Register )

> Death Metal Rabbits - 20 Songs Of Happiness (2019), Death Metal/Grindcore
post Jan 16 2020, 15:16:46
Post #1

Serial Uploader
Group Icon
Group: V.I.P
Posts: 37,300
Releases: 35481
From: Lithuania
On Forums: 12 years 2 months
Thanks: 422931 time(s)
Lithuania


(IMG:http://metalarea.org/images/audiocovers/2020_Jan/acov_tid332715_thumb.jpg)

*Artist: Death Metal Rabbits
*Album: 20 Songs Of Happiness
*Year: 2019
*Genre: Death Metal/Grindcore
*Country: Russian Federation (IMG:http://metalarea.org/forum/style_images/flags/Russian%20Federation.png)
*Format: mp3@CBR320kbps
*Size: 84MB

Tracklist:
01. Fluffy Phenomenon 01:57
02. In The Name Of Carrot 01:52
03. Nekomimi Ov Baphomet 01:40
04. Affectionate Shub-Niggurath 01:37
05. Postmortem Endearment 01:30
06. Sweet Devastator 01:33
07. Vomit, Gore And Kittens 01:27
08. Carrot Cake Dismemberment 01:01
09. Death To The People, Care To The Cats 01:10
10. She Is Perfect (She Has A Dick) 01:28
11. Ponyville Whorerror Story 01:55
12. Green Tea Supremacy 01:20
13. Hentairaiser 02:04
14. ACAB (Adorably Cute Anime Bishonen) 01:00
15. Tolerant Xenomorph 02:01
16. Lovely Homicide 01:53
17. Cum With Milk Of Human Kindness 02:15
18. Obey Your Kitty 01:07
19. Tinkie Winkie Tickle Stick (Teeney Peeney Wini Dick) 01:58
20. Bumpkin Blumpkin 03:52
******************************
Total playing time: 34:40

Preview 1

(IMG:http://metalarea.org/images/youtube.png)

Technical info
(IMG:http://metalarea.org/images/spectrogram/2020_Jan/fb57bf77cfaf074b761e1bac18883172.png)
Input File: 02. In the Name of Carrot.mp3
Channels : 2
Sample Rate : 44100
Precision : 16-bit
Duration : 00:01:52.20 = 4948108 samples = 8415.15 CDDA sectors
File Size : 4.70M
Bit Rate : 335k
Sample Encoding: MPEG audio (layer I, II or III)
Comments :
Title=In the Name of Carrot
Artist=Death Metal Rabbits
Album=20 Songs of Happiness
Tracknumber=2
Year=2019



Register


Go to the top of the page
  Insert nick Quick quote
+Quote Post
 
Start new topic
Replies (1 - 2)
post Jan 16 2020, 17:13:30
Post #2

Правь статус, ####!111
**************
Group: Металариец
Posts: 47,071
Releases: 732
On Forums: 11 years 2 months
Thanks: 39746 time(s)
Russian Federation


Another pile of crap.

When will it end for fuck's sake?

Some outblast of shitty grind. Macchie Solari...
Go to the top of the page
  Insert nick Quick quote
+Quote Post
post Jan 17 2020, 03:35:00
Post #3

Маньяк
**********
Group: Металариец
Posts: 1,197
Releases: 0
On Forums: 2 years 1 month
Thanks: 1088 time(s)
Unknown


"Во имя моркови" (IMG:style_emoticons/default/1488.gif)
Go to the top of the page
  Insert nick Quick quote
+Quote Post

Reply to this topicStart new topic
1 User(s) are reading this topic (1 Guests and 0 Anonymous Users)
0 Members:

 



- Lo-Fi Version Support form
Copyrights and abuse reports form
Time is now: 15th August 2020 - 15:05:44