Welcome Guest ( Log In | Register )

> Releases Upload / Добавление релизов

Добавить релиз тут / Click here to add release
Рекомендованные обменники / Recommended file shares

> Beastial Piglord - Pulling A Thread From The Fabric Of The Universe (2019), Experimental Death Metal
post Jan 16 2020, 15:29:25
Post #1

Serial Uploader
Group Icon
Group: V.I.P
Posts: 36,790
Releases: 34977
From: Lithuania
On Forums: 11 years 7 months
Thanks: 410634 time(s)
Lithuania


(IMG:http://metalarea.org/images/audiocovers/2020_Jan/acov_tid332716_thumb.jpg)

*Artist: Beastial Piglord
*Album: Pulling A Thread From The Fabric Of The Universe
*Year: 2019
*Genre: Experimental Death Metal
*Country: United States (IMG:http://metalarea.org/forum/style_images/flags/United%20States.png)
*Format: mp3@CBR320kbps
*Size: 92MB

Tracklist:
01. Cloister 01:41
02. Filtver 04:38
03. Lithern 07:04
04. Aversion Sapien 05:36
05. Mesmerism 03:39
06. Resonator 04:26
07. Generativecreativeorganizingforce 02:42
08. Mysterium Cosmographicumembrane 03:07
09. Botfly 02:18
******************************
Total playing time: 35:11





(IMG:http://metalarea.org/images/youtube.png)

Technical info
(IMG:http://metalarea.org/images/spectrogram/2020_Jan/54d9e334c9aef25bf6892f7abb795990.png)
Input File: 04. Aversion Sapien.mp3
Channels : 2
Sample Rate : 44100
Precision : 16-bit
Duration : 00:05:36.82 = 14853674 samples = 25261.4 CDDA sectors
File Size : 14.3M
Bit Rate : 339k
Sample Encoding: MPEG audio (layer I, II or III)
Comments :
Title=Aversion Sapien
Artist=Beastial Piglord
Album=Pulling a Thread from the Fabric of the Universe
Tracknumber=4
Year=2019
Genre=Death Metal
Discnumber=1



Register


Go to the top of the page
  Insert nick Quick quote
+Quote Post
 
Start new topic
Replies (1 - 1)
post Jan 16 2020, 17:14:02
Post #2

Девять Литров
*********
Group: Металариец
Posts: 994
Releases: 4
From: Харьков
On Forums: 11 years 4 months
Thanks: 345 time(s)
Ukraine


что это? и главное, зачем?
Go to the top of the page
  Insert nick Quick quote
+Quote Post

Reply to this topicStart new topic
2 User(s) are reading this topic (2 Guests and 0 Anonymous Users)
0 Members:

 



- Lo-Fi Version Support form
Copyrights and abuse reports form
Time is now: 18th January 2020 - 01:07:15