Welcome Guest ( Log In | Register )

> Burier - Burier II [demo] (2020), Raw Black Metal
post Jan 16 2020, 15:43:26
Post #1

Serial Uploader
Group Icon
Group: V.I.P
Posts: 37,392
Releases: 35571
From: Lithuania
On Forums: 12 years 3 months
Thanks: 425371 time(s)
Lithuania


(IMG:http://metalarea.org/images/audiocovers/2020_Jan/acov_tid332717_thumb.jpg)

*Artist: Burier
*Album: Burier II [demo]
*Year: 2020
*Genre: Raw Black Metal
*Country: Australia (IMG:http://metalarea.org/forum/style_images/flags/Australia.png)
*Format: mp3@CBR320kbps
*Size: 89MB

Tracklist:
01. One Thousand Wings 10:02
02. Blades of Rapture 07:13
03. Trapped by the Dawn 04:19
04. Deep as the Fear That Circles 05:57
05. Rot Eternal 08:58
******************************
Total playing time: 36:29



Technical info
(IMG:http://metalarea.org/images/spectrogram/2020_Jan/c0df932f19f705ccf14ba4f6b532f361.png)
Input File: 02. Blades Of Rapture.mp3
Channels : 2
Sample Rate : 44100
Precision : 16-bit
Duration : 00:07:13.79 = 19130007 samples = 32534 CDDA sectors
File Size : 17.5M
Bit Rate : 322k
Sample Encoding: MPEG audio (layer I, II or III)
Comments :
Title=Blades Of Rapture
Artist=Burier
Album=Burier II
Tracknumber=2
Year=2020



Register


Go to the top of the page
  Insert nick Quick quote
+Quote Post
 
Start new topic
Replies (1 - 3)
post Apr 22 2020, 03:58:23
Post #2

Group: Подсевший
Posts: 25
Releases: 0
On Forums: 1 year 2 days
Thanks: 2 time(s)
United States


Needs re-up, dead links
Go to the top of the page
  Insert nick Quick quote
+Quote Post
post Aug 16 2020, 21:48:46    Сейчас играет: Burier - Burier II [demo] (2020)
Post #3

Литр
*
Group: Подсевший
Posts: 57
Releases: 6
On Forums: 2 years 7 months
Thanks: 138 time(s)
Guatemala


Burier - Burier II [demo] (2020) dead link, can you please re up..??? HAILS..!! (IMG:style_emoticons/default/pray.gif)
Go to the top of the page
  Insert nick Quick quote
+Quote Post
post Aug 16 2020, 21:57:25
Post #4

Serpent Doom
**************
Group: Металариец
Posts: 2,128
Releases: 655
From: Moscow region
On Forums: 12 years 3 weeks
Thanks: 11811 time(s)
Russian Federation


You can download this demo directly from


Go to the top of the page
  Insert nick Quick quote
+Quote Post

Reply to this topicStart new topic
1 User(s) are reading this topic (1 Guests and 0 Anonymous Users)
0 Members:

 



- Lo-Fi Version Support form
Copyrights and abuse reports form
Time is now: 23rd September 2020 - 11:14:01