Welcome Guest ( Log In | Register )

> Releases Upload / Добавление релизов

Добавить релиз тут / Click here to add release
Рекомендованные обменники / Recommended file shares

 
Reply to this topicStart new topic
> Burier - Burier II [demo] (2020), Raw Black Metal
post Jan 16 2020, 15:43:26
Post #1

Serial Uploader
Group Icon
Group: V.I.P
Posts: 36,878
Releases: 35064
From: Lithuania
On Forums: 11 years 7 months
Thanks: 412178 time(s)
Lithuania


(IMG:http://metalarea.org/images/audiocovers/2020_Jan/acov_tid332717_thumb.jpg)

*Artist: Burier
*Album: Burier II [demo]
*Year: 2020
*Genre: Raw Black Metal
*Country: Australia (IMG:http://metalarea.org/forum/style_images/flags/Australia.png)
*Format: mp3@CBR320kbps
*Size: 89MB

Tracklist:
01. One Thousand Wings 10:02
02. Blades of Rapture 07:13
03. Trapped by the Dawn 04:19
04. Deep as the Fear That Circles 05:57
05. Rot Eternal 08:58
******************************
Total playing time: 36:29



Technical info
(IMG:http://metalarea.org/images/spectrogram/2020_Jan/c0df932f19f705ccf14ba4f6b532f361.png)
Input File: 02. Blades Of Rapture.mp3
Channels : 2
Sample Rate : 44100
Precision : 16-bit
Duration : 00:07:13.79 = 19130007 samples = 32534 CDDA sectors
File Size : 17.5M
Bit Rate : 322k
Sample Encoding: MPEG audio (layer I, II or III)
Comments :
Title=Blades Of Rapture
Artist=Burier
Album=Burier II
Tracknumber=2
Year=2020



Register


Go to the top of the page
  Insert nick Quick quote
+Quote Post

Reply to this topicStart new topic
1 User(s) are reading this topic (1 Guests and 0 Anonymous Users)
0 Members:

 



- Lo-Fi Version Support form
Copyrights and abuse reports form
Time is now: 29th January 2020 - 00:37:30