Welcome Guest ( Log In | Register )

 
Reply to this topicStart new topic
> Hungerwinter - Vernichtungsstrategie [demo] (2020), Instrumental Black Metal
post Jan 16 2020, 15:55:31
Post #1

Serial Uploader
Group Icon
Group: V.I.P
Posts: 37,417
Releases: 35595
From: Lithuania
On Forums: 12 years 3 months
Thanks: 425989 time(s)
Lithuania


(IMG:http://metalarea.org/images/audiocovers/2020_Jan/acov_tid332718_thumb.jpg)

*Artist: Hungerwinter
*Album: Vernichtungsstrategie [demo]
*Year: 2020
*Genre: Instrumental Black Metal
*Country: Germany (IMG:http://metalarea.org/forum/style_images/flags/Germany.png)
*Format: mp3@CBR320kbps
*Size: 28MB

Tracklist:
01. Hindenburg 02:41
02. Morgen bin ich Tot 02:41
03. Schützengrabenfieber 02:41
04. Hungertod 02:19
05. Reichsbahn-Romanze 01:16
******************************
Total playing time: 11:38


(IMG:http://metalarea.org/images/youtube.png)

Technical info
(IMG:http://metalarea.org/images/spectrogram/2020_Jan/c863be56d1eb0ea883e9cca212ba6c4c.png)
Input File: 02. Morgen bin ich Tot.mp3
Channels : 2
Sample Rate : 44100
Precision : 16-bit
Duration : 00:02:41.60 = 7126648 samples = 12120.1 CDDA sectors
File Size : 6.59M
Bit Rate : 326k
Sample Encoding: MPEG audio (layer I, II or III)
Comments :
Title=Morgen bin ich Tot
Artist=Hungerwinter
Album=Vernichtungsstrategie (Demo)
Tracknumber=2
Year=2020



Register


Go to the top of the page
  Insert nick Quick quote
+Quote Post

Reply to this topicStart new topic
1 User(s) are reading this topic (1 Guests and 0 Anonymous Users)
0 Members:

 



- Lo-Fi Version Support form
Copyrights and abuse reports form
Time is now: 28th September 2020 - 12:52:48