Welcome Guest ( Log In | Register )

> Releases Upload / Добавление релизов

Добавить релиз тут / Click here to add release
Рекомендованные обменники / Recommended file shares

 
Reply to this topicStart new topic
> Analgesia - Saint Dreamers (2013), Symphonic Gothic Metal
post Jan 16 2020, 15:58:23
Post #1

Правь статус, ####!111
**************
Group: Металариец
Posts: 6,239
Releases: 5752
From: Lithuania
On Forums: 13 years 4 months
Thanks: 42520 time(s)
Lithuania


(IMG:https://metalarea.org/images/audiocovers/2020_Jan/acov_tid332719_thumb.jpg)

*Artist: Analgesia
*Album: Saint Dreamers
*Year: 2013
*Genre: Symphonic Gothic Metal
*Country: Morocco (IMG:https://metalarea.org/forum/style_images/flags/Morocco.png)
*Format: mp3@CBR320kbps
*Size: 217MB

Tracklist:
CD1:
1. Wellhorld 05:15
2. Story End 04:24
3. Deliver Me 04:37
4. Fallen Beuty 05:14
5. Still in My Mind 03:33
6. Men on the Earth 02:04 (Remake)
7. Tell Me 04:53
8. Motherland 01:42
9. Tonight 02:52
10. One (Metallica cover) 06:54
11. Heroes and Poets 04:56

CD2 (Instrumental):
1. Wellhorld 05:15
2. Story End 04:24
3. Deliver Me 04:37
4. Fallen Beuty 05:14
5. Still in My Mind 03:33
6. Men on the Earth 02:04
7. Tell Me 04:53
8. Motherland 01:42
9. Tonight 02:52
10. One (Metallica cover) 06:54
11. Heroes and Poets 04:56
******************************
Total playing time: 1:32:48

(IMG:https://metalarea.org/images/youtube.png)


Technical info
(IMG:https://metalarea.org/images/spectrogram/2020_Jan/dea319083ae3c9370897fbea1e7fd759.png)
Input File: 10 - One (Cover).mp3
Channels : 2
Sample Rate : 44100
Precision : 16-bit
Duration : 00:06:53.60 = 18239584 samples = 31019.7 CDDA sectors
File Size : 16.8M
Bit Rate : 324k
Sample Encoding: MPEG audio (layer I, II or III)
Comments :
Title=One (Cover)
Artist=Analgesia
Album=Saint Dreamers
Tracknumber=10
Year=2013
Genre=Symphonic Gothic Metal/Rock



Register


Go to the top of the page
  Insert nick Quick quote
+Quote Post

Reply to this topicStart new topic
1 User(s) are reading this topic (1 Guests and 0 Anonymous Users)
0 Members:

 



- Lo-Fi Version Support form
Copyrights and abuse reports form
Time is now: 21st February 2020 - 02:22:22