Welcome Guest ( Log In | Register )

> Releases Upload / Добавление релизов

Добавить релиз тут / Click here to add release
Рекомендованные обменники / Recommended file shares

 
Reply to this topicStart new topic
> Frogg - A Reptilian Dystopia [ep] (2020), Progressive/Melodic Death Metal
post Jan 16 2020, 16:07:36
Post #1

Serial Uploader
Group Icon
Group: V.I.P
Posts: 36,878
Releases: 35064
From: Lithuania
On Forums: 11 years 7 months
Thanks: 412174 time(s)
Lithuania


(IMG:http://metalarea.org/images/audiocovers/2020_Jan/acov_tid332720_thumb.jpg)

*Artist: Frogg
*Album: A Reptilian Dystopia [ep]
*Year: 2020
*Genre: Progressive/Melodic Death Metal
*Country: United States (IMG:http://metalarea.org/forum/style_images/flags/United%20States.png)
*Format: mp3@CBR320kbps
*Size: 46MB

Tracklist:
01. Ancient Rain
02. Nuclear Storm
03. DNA
04. Ranidaphobia
05. Ancient Rain (Instrumental)
******************************
Total playing time: 20:10



Technical info
(IMG:http://metalarea.org/images/spectrogram/2020_Jan/4719acc91c3532706c44fbd0f7c27d79.png)
Input File: 04. Ranidaphobia.mp3
Channels : 2
Sample Rate : 44100
Precision : 16-bit
Duration : 00:03:47.31 = 10024239 samples = 17048 CDDA sectors
File Size : 9.19M
Bit Rate : 324k
Sample Encoding: MPEG audio (layer I, II or III)
Comments :
Title=Ranidaphobia
Artist=Frogg
Album=A Reptilian Dystopia
Tracknumber=4/5
Year=2020
Genre=9
Discnumber=1/1



Register


Go to the top of the page
  Insert nick Quick quote
+Quote Post

Reply to this topicStart new topic
1 User(s) are reading this topic (1 Guests and 0 Anonymous Users)
0 Members:

 



- Lo-Fi Version Support form
Copyrights and abuse reports form
Time is now: 28th January 2020 - 23:14:41