Welcome Guest ( Log In | Register )

> Releases Upload / Добавление релизов

Добавить релиз тут / Click here to add release
Рекомендованные обменники / Recommended file shares

> Rogue Ogre - The Dungeon (2020), Death Metal
post Jan 16 2020, 16:17:24
Post #1

Serial Uploader
Group Icon
Group: V.I.P
Posts: 36,790
Releases: 34977
From: Lithuania
On Forums: 11 years 7 months
Thanks: 410638 time(s)
Lithuania


(IMG:http://metalarea.org/images/audiocovers/2020_Jan/acov_tid332721_thumb.jpg)

*Artist: Rogue Ogre
*Album: The Dungeon
*Year: 2020
*Genre: Death Metal
*Country: United States (IMG:http://metalarea.org/forum/style_images/flags/United%20States.png)
*Format: mp3@CBR320kbps
*Size: 96MB

Tracklist:
01. Killing the Druid 12:11
02. Beware the Shadows 04:20
03. Paladin Crusher 07:16
04. King Ogre 08:55
05. On Swift Wings 09:28
******************************
Total playing time: 42:10




Technical info
(IMG:http://metalarea.org/images/spectrogram/2020_Jan/731ef6c956eb22c515a17b9f9c0eb14d.png)
Input File: 02. Beware the Shadows.mp3
Channels : 2
Sample Rate : 44100
Precision : 16-bit
Duration : 00:04:20.09 = 11469925 samples = 19506.7 CDDA sectors
File Size : 10.5M
Bit Rate : 323k
Sample Encoding: MPEG audio (layer I, II or III)
Comments :
Title=Beware the Shadows
Artist=Rogue Ogre
Album=The Dungeon
Tracknumber=2
Year=2020



Register


Go to the top of the page
  Insert nick Quick quote
+Quote Post
 
Start new topic
Replies (1 - 2)
post Yesterday, 10:55:09
Post #2

тебе 29, а ты все реверсами балуешься
***********
Group: Металариец
Posts: 1,813
Releases: 4
On Forums: 11 years 5 months
Thanks: 559 time(s)
Russian Federation


Пырение обложки может отвлечь от очень крутого материала - атмосферный олд-скул дэт со скоростными боевиками и примесью думца.


Thanks:
Go to the top of the page
  Insert nick Quick quote
+Quote Post
post Yesterday, 11:59:15
Post #3

кручу наждак
**************
Group: Металариец
Posts: 4,209
Releases: 99
From: Самара
On Forums: 9 years 8 months
Thanks: 3296 time(s)
Russian Federation


ЦИТАТА(Foneg @ Jan 17 2020, 10:55:09) *
Пырение обложки может отвлечь от очень крутого материала - атмосферный олд-скул дэт со скоростными боевиками и примесью думца.

Верно и обратное утверждение: пырение атмосферного олдскул дэта со скоростными боевиками и примесью думца может отвлечь от созерцания шедевральной обложки.


Thanks:
(1) Foneg,
Go to the top of the page
  Insert nick Quick quote
+Quote Post

Reply to this topicStart new topic
1 User(s) are reading this topic (1 Guests and 0 Anonymous Users)
0 Members:

 



- Lo-Fi Version Support form
Copyrights and abuse reports form
Time is now: 18th January 2020 - 02:03:40