Welcome Guest ( Log In | Register )

> Releases Upload / Добавление релизов

Добавить релиз тут / Click here to add release
Рекомендованные обменники / Recommended file shares

 
Reply to this topicStart new topic
> Niflungar - Remains Of The Old Roots [demo] (2020), Melodic Black Metal
post Jan 16 2020, 16:34:40
Post #1

Serial Uploader
Group Icon
Group: V.I.P
Posts: 36,878
Releases: 35064
From: Lithuania
On Forums: 11 years 7 months
Thanks: 412174 time(s)
Lithuania


(IMG:http://metalarea.org/images/audiocovers/2020_Jan/acov_tid332722_thumb.jpg)

*Artist: Niflungar
*Album: Remains Of The Old Roots [demo]
*Year: 2020
*Genre: Melodic Black Metal
*Country: Serbia (IMG:http://metalarea.org/forum/style_images/flags/Serbia.png)
*Format: mp3@CBR320kbps
*Size: 33MB

Tracklist:
01. Newborn Elder 03:35
02. Redemption: Dark Heritage 08:45
03. Forced to Enslave (Black River Nightmare) 02:37
******************************
Total playing time: 14:57




Technical info
(IMG:http://metalarea.org/images/spectrogram/2020_Jan/7a10ad2d61211c0397f425401e7abb38.png)
Input File: 02. Redemption- Dark Heritage.mp3
Channels : 2
Sample Rate : 44100
Precision : 16-bit
Duration : 00:08:45.30 = 23165686 samples = 39397.4 CDDA sectors
File Size : 21.1M
Bit Rate : 322k
Sample Encoding: MPEG audio (layer I, II or III)
Comments :
Title=Redemption: Dark Heritage
Artist=Niflungar
Album=Remains of The Old Roots (Demo)
Tracknumber=2
Year=2020



Register


Go to the top of the page
  Insert nick Quick quote
+Quote Post

Reply to this topicStart new topic
1 User(s) are reading this topic (1 Guests and 0 Anonymous Users)
0 Members:

 



- Lo-Fi Version Support form
Copyrights and abuse reports form
Time is now: 28th January 2020 - 23:15:20