Welcome Guest ( Log In | Register )

> Releases Upload / Добавление релизов

Добавить релиз тут / Click here to add release
Рекомендованные обменники / Recommended file shares

> Thy Rites - Necrospells Fom Hell [compilation] (2020), Black/Death Metal (D)
post Jan 16 2020, 18:05:45
Post #1

Detective Godzilla
Group Icon
Group: Moderation team
Posts: 3,380
Releases: 295
On Forums: 9 years 2 weeks
Thanks: 10716 time(s)
Russian Federation


(IMG:https://metalarea.org/images/audiocovers/2020_Jan/acov_tid332723_thumb.jpg)

*Artist: Thy Rites
*Album: Necrospells Fom Hell [compilation]
*Year: 2020
*Genre: Black/Death Metal
*Country: Brazil (IMG:https://metalarea.org/forum/style_images/flags/Brazil.png)
*Format: mp3@CBR320kbps
*Size: 88MB

Tracklist:
01. Horns Up (Intro) 01:39
02. Necrosancti Fasciitis Spiritus 05:23
03. Altar of Satanic Sacrifice 07:42
04. Rise the Chalice of Doom 05:50
05. Bloodshed Visions 03:23
06. Summoning the Abominations Curse 03:15
07. Obliteration of the Holy Scum 03:20
08. Thy Infernal Coronation 03:25
09. Beasts by Bloodlust 03:23
******************************
Total playing time: 37:20



Extended info
Personal purchase


Technical info
(IMG:https://metalarea.org/images/spectrogram/2020_Jan/1e69e33d2a7b821827c0de499d3ab3b8.png)
Input File: Deathcamp Records - THY RITES - -Necrospells fom Hell- - 04 Rise the Chalice of Doom.mp3
Channels : 2
Sample Rate : 44100
Precision : 16-bit
Duration : 00:05:50.92 = 15475660 samples = 26319.1 CDDA sectors
File Size : 14.2M
Bit Rate : 324k
Sample Encoding: MPEG audio (layer I, II or III)
Comments :
Title=Rise the Chalice of Doom
Artist=Thy Rites
Album=Necrospells fom Hell
Tracknumber=4
Year=2020



Register


Go to the top of the page
  Insert nick Quick quote
+Quote Post
 
Start new topic
Replies (1 - 2)
post Jan 16 2020, 19:08:33
Post #2

Правь статус, ####!111
**************
Group: Металариец
Posts: 45,121
Releases: 695
On Forums: 10 years 8 months
Thanks: 36805 time(s)
Russian Federation


Обложка конечно (IMG:style_emoticons/default/1488.gif) (IMG:style_emoticons/default/14.gif) (IMG:style_emoticons/default/15.gif)

И это в 2020 уже...
Go to the top of the page
  Insert nick Quick quote
+Quote Post
post Jan 17 2020, 11:59:26
Post #3

Литр
*
Group: Подсевший
Posts: 51
Releases: 0
On Forums: 9 years 6 months
Thanks: 18 time(s)
Ukraine


ЦИТАТА(vosmidesijatye @ Jan 16 2020, 20:08:33) *
Обложка конечно ...

...огонь. По другому не скажешь))
Go to the top of the page
  Insert nick Quick quote
+Quote Post

Reply to this topicStart new topic
1 User(s) are reading this topic (1 Guests and 0 Anonymous Users)
0 Members:

 



- Lo-Fi Version Support form
Copyrights and abuse reports form
Time is now: 21st February 2020 - 16:37:54