Welcome Guest ( Log In | Register )

> Releases Upload / Добавление релизов

Добавить релиз тут / Click here to add release
Рекомендованные обменники / Recommended file shares

 
Reply to this topicStart new topic
> Vomit Division - Rites Of Vomit [ep] (2019), Black/Thrash Metal
post Jan 16 2020, 18:34:44
Post #1

Правь статус, ####!111
**************
Group: Металариец
Posts: 20,591
Releases: 14048
From: Г.Харьков
On Forums: 7 years 9 months
Thanks: 247766 time(s)
Unknown


(IMG:http://metalarea.org/images/audiocovers/2020_Jan/acov_tid332727_thumb.jpg)

*Artist: Vomit Division
*Album: Rites Of Vomit [ep]
*Year: 2019
*Genre: Black/Thrash Metal
*Country: Germany (IMG:http://metalarea.org/forum/style_images/flags/Germany.png)
*Format: mp3@CBR320kbps
*Size: 57MB

Tracklist:
1. Vomit Division 03:53
2. Panzerabwehr Rock 'n' Roll 05:36
3. Caffeine & Anger 02:57
4. R.H.VV. 04:32
5. Medieval Warfare 07:41
******************************
Total playing time: 24:39




Extended info
Desmotes All instruments, Vocals
See also: Fiat Nox, Funeral Procession, Voreus


Technical info
(IMG:http://metalarea.org/images/spectrogram/2020_Jan/1567daa9d7737aec5c67b63974ce66d0.png)
Input File: Vomit Division - Rites of Vomit - 04 R.H.VV..mp3
Channels : 2
Sample Rate : 44100
Precision : 16-bit
Duration : 00:04:32.34 = 12010238 samples = 20425.6 CDDA sectors
File Size : 11.0M
Bit Rate : 323k
Sample Encoding: MPEG audio (layer I, II or III)
Comments :
Title=R.H.VV.
Artist=Vomit Division
Album=Rites of Vomit
Tracknumber=4
Year=2019



Register


Go to the top of the page
  Insert nick Quick quote
+Quote Post

Reply to this topicStart new topic
1 User(s) are reading this topic (1 Guests and 0 Anonymous Users)
0 Members:

 



- Lo-Fi Version Support form
Copyrights and abuse reports form
Time is now: 16th February 2020 - 20:24:06