Welcome Guest ( Log In | Register )

 
Reply to this topicStart new topic
> Noldor - Banned From Light (2020), Melodic Death Metal (D)
post Jan 17 2020, 02:32:11
Post #1

Правь статус, ####!111
**************
Group: Металариец
Posts: 21,852
Releases: 15059
From: Г.Харьков
On Forums: 8 years 2 weeks
Thanks: 272869 time(s)
Unknown


(IMG:http://metalarea.org/images/audiocovers/2020_Jan/acov_tid332741_thumb.jpg)

*Artist: Noldor
*Album: Banned From Light
*Year: 2020
*Genre: Melodic Death Metal
*Country: Brazil (IMG:http://metalarea.org/forum/style_images/flags/Brazil.png)
*Format: mp3@CBR320kbps
*Size: 97MB

Tracklist:
1. Banned from Light 04:50
2. Misery's Crown 04:47
3. Succubus 03:51
4. Parasite 04:50
5. Devoured by the Death 04:36
6. Hateful Vengeance 06:20
7. The Profane Act 04:33
8. Penumbra 01:21 instrumental
9. Kingdom of Sin 06:47
******************************
Total playing time: 41:55




Extended info
Patrick Marçal All instruments, Vocals (2014-present)
See also: Neshamot


Technical info
(IMG:http://metalarea.org/images/spectrogram/2020_Jan/2d41a5baf2837324cd33e2f599c564a6.png)
Input File: 04 - Parasite.mp3
Channels : 2
Sample Rate : 44100
Precision : 16-bit
Duration : 00:04:50.24 = 12799540 samples = 21767.9 CDDA sectors
File Size : 11.8M
Bit Rate : 324k
Sample Encoding: MPEG audio (layer I, II or III)
Comments :
Title=Parasite
Artist=Noldor
Album=Banned from Light
Tracknumber=4
Year=2020-01-14
Genre=Metal
Discnumber=1



Register


Go to the top of the page
  Insert nick Quick quote
+Quote Post

Reply to this topicStart new topic
1 User(s) are reading this topic (1 Guests and 0 Anonymous Users)
0 Members:

 



- Lo-Fi Version Support form
Copyrights and abuse reports form
Time is now: 25th May 2020 - 20:32:14