Welcome Guest ( Log In | Register )

 
Reply to this topicStart new topic
> Anno Mundi - Land Of Legends (2019), Heavy/Doom Metal/Rock
post Jan 17 2020, 03:29:03
Post #1

Правь статус, ####!111
**************
Group: Металариец
Posts: 21,196
Releases: 14482
From: Г.Харьков
On Forums: 7 years 10 months
Thanks: 258195 time(s)
Unknown


(IMG:http://metalarea.org/images/audiocovers/2020_Jan/acov_tid332743_thumb.jpg)

*Artist: Anno Mundi
*Album: Land Of Legends
*Year: 2019
*Genre: Heavy/Doom Metal/Rock
*Country: Italy (IMG:http://metalarea.org/forum/style_images/flags/Italy.png)
*Format: mp3@CBR320kbps
*Size: 182MB

Tracklist:
1. Twisted World's End 05:33
2. Hyperborea 14:58
3. Dark Energy 03:04
4. Hyperway to Knowhere 09:24
5. Female Revenge 14:03
6. Megas Alexandros 07:49
7. Dark Matter: Nibiru's Orbit 01:31
8. Searching the Faith 05:55
9. Tribute to Erich Zann 00:36
10. Pending Trial 08:36
11. Fanfare 02:08
12. In the Saloon 01:14
13. Blackfoot 04:10
******************************
Total playing time: 1:19:01



Extended info
Gianluca Livi Drums (2009-present)
Alessio Secondini Morelli Guitars (2009-present)
Federico "Freddy" Giuntoli Vocals (2013-present)
Flavio Gonnellini Bass (2014-present)
Mattia Liberati Keyboards (2014-present)



Technical info
(IMG:http://metalarea.org/images/spectrogram/2020_Jan/790559d870d5f6542e19c51c4d02ff25.png)
Input File: 06 - Megas Alexandros.mp3
Channels : 2
Sample Rate : 44100
Precision : 16-bit
Duration : 00:07:49.42 = 20701554 samples = 35206.7 CDDA sectors
File Size : 18.9M
Bit Rate : 321k
Sample Encoding: MPEG audio (layer I, II or III)
Comments :
Title=Megas Alexandros
Artist=Anno Mundi
Album=Land of Legends
Tracknumber=6
Year=2020-01-17
Genre=Rock
Discnumber=1



Register


Go to the top of the page
  Insert nick Quick quote
+Quote Post

Reply to this topicStart new topic
1 User(s) are reading this topic (1 Guests and 0 Anonymous Users)
0 Members:

 



- Lo-Fi Version Support form
Copyrights and abuse reports form
Time is now: 31st March 2020 - 20:47:13