Welcome Guest ( Log In | Register )

 
Reply to this topicStart new topic
> Extirpation - A Damnation's Stairway To The Altar Of Failure (2019), Blackened Thrash Metal
post Jan 18 2020, 01:41:22
Post #1

Правь статус, ####!111
**************
Group: Металариец
Posts: 21,938
Releases: 15137
From: Г.Харьков
On Forums: 8 years 3 weeks
Thanks: 274709 time(s)
Unknown


(IMG:http://metalarea.org/images/audiocovers/2020_Jan/acov_tid332766_thumb.jpg)

*Artist: Extirpation
*Album: A Damnation's Stairway To The Altar Of Failure
*Year: 2019
*Genre: Blackened Thrash Metal
*Country: Italy (IMG:http://metalarea.org/forum/style_images/flags/Italy.png)
*Format: mp3@CBR320kbps
*Size: 77MB

Tracklist:
1. Awakening 01:13 instrumental
2. Into Disease 02:56
3. Labyrinth of Empty Cages 02:57
4. (Inevitable) Sufferance 04:04
5. Faith of the Parasite 04:43
6. Stasis 03:10
7. Soul Pact 05:22
8. A Damnation's Stairway... 03:49
9. ...to the Altar of Failure 04:50 S
******************************
Total playing time: 33:04




Extended info
Darak Bass, Vocals (2009-present)
Elia Drums (2009-present)
Hellros Guitars (2009-present)
See also: Krossburst, Terrorsaw, ex-Morbus Grave, ex-Funest (live)
Magikkk Guitars (2013-present)
See also: Black Oath, Krossburst, Terrorsaw, The Rite, ex-Sign of Evil



Technical info
(IMG:http://metalarea.org/images/spectrogram/2020_Jan/270fd561fd5a59d40f642f105f21cb16.png)
Input File: 05 - Faith of the Parasite.mp3
Channels : 2
Sample Rate : 44100
Precision : 16-bit
Duration : 00:04:43.87 = 12518447 samples = 21289.9 CDDA sectors
File Size : 11.5M
Bit Rate : 324k
Sample Encoding: MPEG audio (layer I, II or III)
Comments :
Title=Faith of the Parasite
Artist=Extirpation
Album=A Damnation's Stairway to the Altar of Failure
Tracknumber=5
Year=2019-01-15
Discnumber=1



Register


Go to the top of the page
  Insert nick Quick quote
+Quote Post

Reply to this topicStart new topic
1 User(s) are reading this topic (1 Guests and 0 Anonymous Users)
0 Members:

 



- Lo-Fi Version Support form
Copyrights and abuse reports form
Time is now: 3rd June 2020 - 20:42:52