Welcome Guest ( Log In | Register )

 
Reply to this topicStart new topic
> Black Feather Klan - Vol. Ii: Cracking The Shell (2019), Stoner Metal
post Jan 18 2020, 02:00:56
Post #1

Правь статус, ####!111
**************
Group: Металариец
Posts: 21,302
Releases: 14576
From: Г.Харьков
On Forums: 7 years 10 months
Thanks: 260376 time(s)
Unknown


(IMG:http://metalarea.org/images/audiocovers/2020_Jan/acov_tid332767_thumb.jpg)

*Artist: Black Feather Klan
*Album: Vol. Ii: Cracking The Shell
*Year: 2019
*Genre: Stoner Metal
*Country: Brazil (IMG:http://metalarea.org/forum/style_images/flags/Brazil.png)
*Format: mp3@CBR320kbps
*Size: 100MB

Tracklist:
1. No Time to Wait 04:48
2. No Speed Control 03:39
3. Cracking the Shell 03:29
4. Wake Up 06:15
5. World of Lie 04:01
6. Better 06:54
7. The Gift 04:40
8. This Place Is Death 08:40
******************************
Total playing time: 42:26




Extended info
Rubens Trindade Bass
See also: ex-Preceptor, ex-Mortthrash
Henrique Lima Drums, Percussion
See also: Dirty Grave
Tiago Bizzotto Guitars (2011-present)
Cristiano Soares Vocals (2011-present)


Technical info
(IMG:http://metalarea.org/images/spectrogram/2020_Jan/4c387351bcd06cb3592fb00c22bc3df1.png)
Input File: 04 - Wake Up.mp3
Channels : 2
Sample Rate : 44100
Precision : 16-bit
Duration : 00:06:15.48 = 16558712 samples = 28161.1 CDDA sectors
File Size : 15.4M
Bit Rate : 327k
Sample Encoding: MPEG audio (layer I, II or III)
Comments :
Title=Wake Up
Artist=Black Feather Klan
Album=Vol. II: Cracking the Shell
Tracknumber=4
Year=2019
Genre=Metal
Discnumber=1



Register


Go to the top of the page
  Insert nick Quick quote
+Quote Post

Reply to this topicStart new topic
1 User(s) are reading this topic (1 Guests and 0 Anonymous Users)
0 Members:

 



- Lo-Fi Version Support form
Copyrights and abuse reports form
Time is now: 7th April 2020 - 21:28:12