Welcome Guest ( Log In | Register )

> Sauvan Sankari - Suomen Kuninkaan Orkit [ep] (2020), Black/Folk Metal
post Jan 18 2020, 06:35:28
Post #1

Правь статус, ####!111
**************
Group: Металариец
Posts: 21,216
Releases: 14487
From: Г.Харьков
On Forums: 7 years 10 months
Thanks: 258432 time(s)
Unknown


(IMG:http://metalarea.org/images/audiocovers/2020_Jan/acov_tid332781_thumb.jpg)

*Artist: Sauvan Sankari
*Album: Suomen Kuninkaan Orkit [ep]
*Year: 2020
*Genre: Black/Folk Metal
*Country: Finland (IMG:http://metalarea.org/forum/style_images/flags/Finland.png)
*Format: mp3@CBR320kbps
*Size: 39MB

Tracklist:
1. Ingmarin Demonit (Intro) 01:29
2. Suomen Kuninkaan Örkit (Narnian Tuhkalla Ruokitut) 03:53
3. Aallot Huuhtoivat Rantaan Synkkiä Tyranneja 03:50
4. Palvokaa Niitä, Jotka Teroittavat Hampaansa Miekoiksi 04:25
5. Viimeinen Ilta 03:10
******************************
Total playing time: 16:47



Extended info
Drums by Viskimestari Kathral
Everything else by Sauvan Sankari


Technical info
(IMG:http://metalarea.org/images/spectrogram/2020_Jan/94915591fec045a9c0e3c5b794d3e312.png)
Input File: 04 Palvokaa Niitä, Jotka Teroittavat Hampaansa Miekoiksi.mp3
Channels : 2
Sample Rate : 44100
Precision : 16-bit
Duration : 00:04:25.37 = 11702641 samples = 19902.5 CDDA sectors
File Size : 10.7M
Bit Rate : 324k
Sample Encoding: MPEG audio (layer I, II or III)
Comments :
Title=Palvokaa Niitä, Jotka Teroittavat Hampaansa Miekoiksi
Artist=Sauvan Sankari
Album=Suomen Kuninkaan Örkit
Tracknumber=4
Year=2020



Register


Go to the top of the page
  Insert nick Quick quote
+Quote Post
 
Start new topic
Replies (1 - 1)
post Jan 20 2020, 11:22:47
Post #2

Group: Подсевший
Posts: 48
Releases: 0
On Forums: 2 months 2 weeks
Thanks: 13 time(s)
Unknown


Black/Folk Metal (IMG:style_emoticons/default/23.gif) не совсем верно.
На ипишке записан сырой Блэк Метал с сильным влиянием под 90-ые годы, с вставками акустической гитары.
Релиз очень крутой!


Thanks:
Go to the top of the page
  Insert nick Quick quote
+Quote Post

Reply to this topicStart new topic
2 User(s) are reading this topic (2 Guests and 0 Anonymous Users)
0 Members:

 



- Lo-Fi Version Support form
Copyrights and abuse reports form
Time is now: 1st April 2020 - 19:10:21