Welcome Guest ( Log In | Register )

 
Reply to this topicStart new topic
> Griiim - Jöyful Noïse (2016), Black Metal/Dark Ambient/Noise
post Jan 18 2020, 22:05:55
Post #1

Пять Литров
*****
Group: Металариец
Posts: 402
Releases: 80
On Forums: 6 years 10 months
Thanks: 1618 time(s)
Serbia


(IMG:https://metalarea.org/images/audiocovers/2020_Jan/acov_tid332817_thumb.jpg)

*Artist: Griiim
*Album: Jöyful Noïse
*Year: 2016
*Genre: Black Metal/Dark Ambient/Noise
*Country: France (IMG:https://metalarea.org/forum/style_images/flags/France.png)
*Format: mp3@CBR320kbps
*Size: 99MB

Tracklist:
1. Joyful Music 4:06
2. I Watch You Die 3:32
3. Masquerade Of Darkness 2:50
4. Pull The Trigger 4:30
5. Praise The Lord 3:39
6. Destroy ! 4:26
7. I Put A Spell On You 7:38
8. Anneliese 8:02
9. Lucifer 3:50
******************************
Total playing time: 42:33



Extended info
Griiim is a project of Maxime Taccardi (K.F.R, Saturnian Tempel, Djinn, De Vermiis Mysteriis)
Black metal, noise and power electronics.


Technical info
(IMG:https://metalarea.org/images/spectrogram/2020_Jan/ec4ad1d5a7da7d0e97205f74eb0afb6f.png)
Input File: Griiim - Jöyful Noïse - 02 I watch you Die.mp3
Channels : 2
Sample Rate : 44100
Precision : 16-bit
Duration : 00:03:32.07 = 9352419 samples = 15905.5 CDDA sectors
File Size : 8.56M
Bit Rate : 323k
Sample Encoding: MPEG audio (layer I, II or III)
Comments :
Title=I watch you Die
Artist=Griiim
Album=Jöyful Noïse
Tracknumber=2
Year=2016



Register


This post has been edited by Borderline1991: Jan 19 2020, 14:16:48


Go to the top of the page
  Insert nick Quick quote
+Quote Post

Reply to this topicStart new topic
2 User(s) are reading this topic (2 Guests and 0 Anonymous Users)
0 Members:

 



- Lo-Fi Version Support form
Copyrights and abuse reports form
Time is now: 21st September 2020 - 20:05:43