Welcome Guest ( Log In | Register )

> K.F.R - L'enfer À Sa Source (2019), Black Metal/Dark Ambient (D)
post Jan 19 2020, 15:57:52
Post #1

Пять Литров
*****
Group: Металариец
Posts: 401
Releases: 80
On Forums: 6 years 8 months
Thanks: 1604 time(s)
Serbia


(IMG:https://metalarea.org/images/audiocovers/2020_Jan/acov_tid332829_thumb.jpg)

*Artist: K.F.R
*Album: L'enfer À Sa Source
*Year: 2019
*Genre: Black Metal/Dark Ambient
*Country: France (IMG:https://metalarea.org/forum/style_images/flags/France.png)
*Format: mp3@CBR320kbps
*Size: 103MB

Tracklist:
1. L'enfer, c'est toi 07:55
2. Le sinueux chemin 07:38
3. Simulacre de chair 02:42 instrumental
4. Ne cherche pas à devenir, rien a jamais commencé 05:47
5. Anathème de l'envie 09:15
6. L'enfer à sa source 12:32
******************************
Total playing time: 45:49

Technical info
(IMG:https://metalarea.org/images/spectrogram/2020_Jan/eb32dd66b177bc6cf7654eaa7716ae63.png)
Input File: 3 - Simulacre de Chair.mp3
Channels : 2
Sample Rate : 44100
Precision : 16-bit
Duration : 00:02:42.83 = 7180803 samples = 12212.3 CDDA sectors
File Size : 6.51M
Bit Rate : 320k
Sample Encoding: MPEG audio (layer I, II or III)
Comment : 'Year=2019-02-19'



Register


Go to the top of the page
  Insert nick Quick quote
+Quote Post
 
Start new topic
Replies (1 - 3)
post Jan 19 2020, 22:14:44
Post #2

Правь статус, ####!111
**************
Group: Металариец
Posts: 46,739
Releases: 730
On Forums: 11 years 1 month
Thanks: 39401 time(s)
Russian Federation


Зело хорошечный релиз (как и всегда у Таккарди).

Большое спасибо за релиз.


Thanks:
Go to the top of the page
  Insert nick Quick quote
+Quote Post
post Jan 20 2020, 12:21:26
Post #3

Пять Литров
*****
Group: Металариец
Posts: 401
Releases: 80
On Forums: 6 years 8 months
Thanks: 1604 time(s)
Serbia


Register


Thanks:
Go to the top of the page
  Insert nick Quick quote
+Quote Post
post Jan 22 2020, 11:10:28
Post #4

Правь статус, ####!111
**************
Group: Металариец
Posts: 46,739
Releases: 730
On Forums: 11 years 1 month
Thanks: 39401 time(s)
Russian Federation


Странно шо Леша как ценитель РОУ бм прошел мимо сего примечательного проекта.
Go to the top of the page
  Insert nick Quick quote
+Quote Post

Reply to this topicStart new topic
1 User(s) are reading this topic (1 Guests and 0 Anonymous Users)
0 Members:

 



- Lo-Fi Version Support form
Copyrights and abuse reports form
Time is now: 7th July 2020 - 13:29:55