Welcome Guest ( Log In | Register )

> 

Здесь релизы с живыми прямыми ссылками на lossless

> Ævangelist - Dream An Evil Dream II (2020), Experimental Death/Black Metal
post Jan 19 2020, 18:10:50
Post #1

hard sci-fi rock
**************
Group: Металариец
Posts: 2,450
Releases: 48
From: Purple sea
On Forums: 2 years 6 months
Thanks: 2519 time(s)
Unknown


(IMG:https://metalarea.org/images/audiocovers/2020_Jan/acov_tid332831_thumb.jpg)

*Artist: Ævangelist
*Album: Dream An Evil Dream II
*Year: 2020
*Genre: Experimental Death/Black Metal
*Country: Finland (IMG:http://metalarea.org/forum/style_images/flags/Finland.png)
*Format: mp3@CBR320kbps
*Size: 121MB

Tracklist:
1. Dream an Evil Dream II - Part I 28:08
2. Dream an Evil Dream - Part II 24:48
******************************
Total playing time: 52:56



Extended info
This is the second chapter in our experimental Dream an Evil Dream series, about the majesty and grandeur of dreams and secret journeys to the Astral plane.


Technical info
(IMG:https://metalarea.org/images/spectrogram/2020_Jan/3f80e92813e679d48965f08daa6ed73d.png)
Input File: 01. Dream an Evil Dream II - Part I.mp3
Channels : 2
Sample Rate : 44100
Precision : 16-bit
Duration : 00:28:08.16 = 74447636 samples = 126612 CDDA sectors
File Size : 67.7M
Bit Rate : 321k
Sample Encoding: MPEG audio (layer I, II or III)
Comments :
Title=Dream an Evil Dream II - Part I
Artist=Ævangelist
Album=Dream an Evil Dream II
Tracknumber=1
Year=2020



Register


Go to the top of the page
  Insert nick Quick quote
+Quote Post
 
Start new topic
Replies (1 - 5)
post Jan 20 2020, 11:31:21
Post #2

Group: Подсевший
Posts: 48
Releases: 0
On Forums: 6 months 3 weeks
Thanks: 13 time(s)
Unknown


Потрясающий альбом. Ты как будто погружаешься в это музыкальное полотно на все 52 минуты и потом еще какое то время приходишь в себя после того как отпустит. Оформление очень подходит под содержание.


Thanks:
Go to the top of the page
  Insert nick Quick quote
+Quote Post
post Jan 20 2020, 13:04:45
Post #3

Самый Тихий Час
**************
Group: Металариец
Posts: 5,990
Releases: 2
On Forums: 10 years 8 months
Thanks: 2773 time(s)
Unknown


Он в финланд перебрался?
Go to the top of the page
  Insert nick Quick quote
+Quote Post
post Jan 20 2020, 14:25:25
Post #4

hard sci-fi rock
**************
Group: Металариец
Posts: 2,450
Releases: 48
From: Purple sea
On Forums: 2 years 6 months
Thanks: 2519 time(s)
Unknown


ЦИТАТА(Chasm @ Jan 20 2020, 15:04:45) *
Он в финланд перебрался?


Похоже на то.

Go to the top of the page
  Insert nick Quick quote
+Quote Post
post Feb 7 2020, 18:41:56
Post #5

Мегаманьяк
***********
Group: Металариец
Posts: 1,746
Releases: 0
On Forums: 11 years 5 months
Thanks: 701 time(s)
Antarctica


Неплохой альбом, Esoteric на стероидах. 6/10
Go to the top of the page
  Insert nick Quick quote
+Quote Post
post Jun 3 2020, 09:25:08
Post #6

Group Icon
Group: S-moderation team
Posts: 15,948
Releases: 1440
From: Zagreb
On Forums: 9 years 5 months
Thanks: 72029 time(s)
Croatia


Register


Go to the top of the page
  Insert nick Quick quote
+Quote Post

Reply to this topicStart new topic
2 User(s) are reading this topic (2 Guests and 0 Anonymous Users)
0 Members:

 



- Lo-Fi Version Support form
Copyrights and abuse reports form
Time is now: 7th August 2020 - 10:47:17