Welcome Guest ( Log In | Register )

> Правила / Rules

Тут только для чтения лежат низкобитрейтные (<192kbps) релизы, для которых есть аналоги в высокобитрейтных форумах.

Here goes (and stand in read only mode) low bitrate releases (<192kbps) which were already replaced by high bitrate releases in corresponding forums.

> K.F.R - Démonologue (2019), Black Metal/Dark Ambient (D)
post Jan 19 2020, 22:25:34
Post #1

Пять Литров
*****
Group: Металариец
Posts: 401
Releases: 80
On Forums: 6 years 9 months
Thanks: 1612 time(s)
Serbia


(IMG:https://metalarea.org/images/audiocovers/2020_Jan/acov_tid332843_thumb.jpg)

*Artist: K.F.R
*Album: Démonologue
*Year: 2019
*Genre: Black Metal/Dark Ambient
*Country: France (IMG:https://metalarea.org/forum/style_images/flags/France.png)
*Format: mp3@CBR320kbps
*Size: 109MB

Tracklist:
1. Invocation 05:01
2. Asmodée 08:16
3. Azazel 08:34
4. Prélude à l'exterminateur 02:57
5. Abaddon 06:18
6. Lucifer 10:06
7. La chute 07:51
******************************
Total playing time: 49:03

Technical info
(IMG:https://metalarea.org/images/spectrogram/2020_Jan/07d1bd50ed087e5f2e17c2ab5d9a24eb.png)
Input File: K.F.R - Lucifer.mp3
Channels : 2
Sample Rate : 44100
Precision : 16-bit
Duration : 00:10:02.81 = 26583833 samples = 45210.6 CDDA sectors
File Size : 24.1M
Bit Rate : 320k
Sample Encoding: MPEG audio (layer I, II or III)



Register


Go to the top of the page
  Insert nick Quick quote
+Quote Post
 
Start new topic
Replies (1 - 6)
post Jan 20 2020, 16:28:03
Post #2

Два Литра
**
Group: Завсегдатай
Posts: 146
Releases: 0
From: минск сити
On Forums: 11 years 1 month
Thanks: 36 time(s)
Belarus


Go to the top of the page
  Insert nick Quick quote
+Quote Post
post Jan 20 2020, 18:41:04
Post #3

Правь статус, ####!111
**************
Group: Металариец
Posts: 47,009
Releases: 732
On Forums: 11 years 2 months
Thanks: 39639 time(s)
Russian Federation


Is it real 320 or fake?
Go to the top of the page
  Insert nick Quick quote
+Quote Post
post Jan 20 2020, 18:46:47
Post #4

Пять Литров
*****
Group: Металариец
Posts: 401
Releases: 80
On Forums: 6 years 9 months
Thanks: 1612 time(s)
Serbia


Real bandcamp download. I don't know what is with you reader. I will maybe post WAV files of some albums, so you can see it is real deal.


Thanks:
Go to the top of the page
  Insert nick Quick quote
+Quote Post
post Jan 20 2020, 18:50:13
Post #5

Правь статус, ####!111
**************
Group: Металариец
Posts: 47,009
Releases: 732
On Forums: 11 years 2 months
Thanks: 39639 time(s)
Russian Federation


ЦИТАТА(LazarShadow @ Jan 20 2020, 21:46:47) *
Real bandcamp download. I don't know what is with you reader. I will maybe post WAV files of some albums, so you can see it is real deal.


Thnx for explanation. The thing is that I know nothing about spetres and all this shit so I always wonder if there`re some doubts left.

Enormous thanx for KFR uploads. You do great thing. (IMG:style_emoticons/default/9.gif)

With your help we almost completed Max`s disco. (IMG:style_emoticons/default/pray.gif)
Go to the top of the page
  Insert nick Quick quote
+Quote Post
post Jan 20 2020, 19:01:38
Post #6

Пять Литров
*****
Group: Металариец
Posts: 401
Releases: 80
On Forums: 6 years 9 months
Thanks: 1612 time(s)
Serbia


QUOTE(LazarShadow @ Jan 20 2020, 22:46:47) *
Real bandcamp download. I don't know what is with you reader. I will maybe post WAV files of some albums, so you can see it is real deal.

Go to the top of the page
  Insert nick Quick quote
+Quote Post
post Jan 20 2020, 19:22:28
Post #7

********
Group: Металариец
Posts: 820
Releases: 9
On Forums: 13 years 9 months
Thanks: 454 time(s)
Norfolk Island


ЦИТАТА(vosmidesijatye @ Jan 20 2020, 21:50:13) *
With your help we almost completed Max`s disco. (IMG:style_emoticons/default/pray.gif)


Everybody loves disco! (IMG:style_emoticons/default/banana.gif)
Go to the top of the page
  Insert nick Quick quote
+Quote Post

Причина закрытия (DarkHorde 02-02-2020): K.F.R - Démonologue (2019)
Closed TopicStart new topic
1 User(s) are reading this topic (1 Guests and 0 Anonymous Users)
0 Members:

 



- Lo-Fi Version Support form
Copyrights and abuse reports form
Time is now: 5th August 2020 - 05:38:24