Welcome Guest ( Log In | Register )

> Правила / Rules

Тут только для чтения лежат низкобитрейтные (<192kbps) релизы, для которых есть аналоги в высокобитрейтных форумах.

Here goes (and stand in read only mode) low bitrate releases (<192kbps) which were already replaced by high bitrate releases in corresponding forums.

> K.F.R - Ad Manifestationem Diaboli (2018), Black Metal/Dark Ambient (D)
post Jan 19 2020, 22:48:33
Post #1

Четыре Литра
****
Group: Металариец
Posts: 382
Releases: 71
On Forums: 6 years 4 months
Thanks: 1346 time(s)
Serbia


(IMG:https://metalarea.org/images/audiocovers/2020_Jan/acov_tid332844_thumb.jpg)

*Artist: K.F.R
*Album: Ad Manifestationem Diaboli
*Year: 2018
*Genre: Black Metal/Dark Ambient
*Country: France (IMG:https://metalarea.org/forum/style_images/flags/France.png)
*Format: mp3@CBR320kbps
*Size: 102MB

Tracklist:
1. Il n'y a pas de Paradis où je traîne, que des baisés qui ont la Haine 07:42
2. Darkness and Pain 04:38
3. In my Dreams of Morbidity 05:32
4. Under the World 05:16
5. Through the funeral Maelstrom of Evil (Mütiilation cover) 09:05
6. I Hate 08:08
7. Here I Crawl 03:42
8. Ad Noctis Huius Calíginem Destruéndam 04:53
******************************
Total playing time: 48:56

Technical info
(IMG:https://metalarea.org/images/spectrogram/2020_Jan/8bd6a68f076a44547ddf132eaed1794f.png)
Input File: K.F.R - I Hate.mp3
Channels : 2
Sample Rate : 44100
Precision : 16-bit
Duration : 00:07:58.31 = 21093471 samples = 35873.2 CDDA sectors
File Size : 19.1M
Bit Rate : 320k
Sample Encoding: MPEG audio (layer I, II or III)



Register


Go to the top of the page
  Insert nick Quick quote
+Quote Post
 
Start new topic
Replies (1 - 2)
post Jan 20 2020, 11:41:08
Post #2

Group: Подсевший
Posts: 48
Releases: 0
On Forums: 1 month 1 week
Thanks: 13 time(s)
Unknown


С этого альбома, началось мое знакомство с творчеством этого безумного француза.
Представленный здесь ковер на Mütiilation просто (IMG:style_emoticons/default/pray.gif)
Go to the top of the page
  Insert nick Quick quote
+Quote Post
post Jan 20 2020, 11:45:59
Post #3

Правь статус, ####!111
**************
Group: Металариец
Posts: 45,125
Releases: 695
On Forums: 10 years 8 months
Thanks: 36859 time(s)
Russian Federation


Пасматри его крававые картины в фейсбуке)
Go to the top of the page
  Insert nick Quick quote
+Quote Post

Reply to this topicStart new topic
1 User(s) are reading this topic (1 Guests and 0 Anonymous Users)
0 Members:

 



- Lo-Fi Version Support form
Copyrights and abuse reports form
Time is now: 26th February 2020 - 12:17:34