Welcome Guest ( Log In | Register )

> Releases Upload / Добавление релизов

Добавить релиз тут / Click here to add release
Рекомендованные обменники / Recommended file shares

 
Reply to this topicStart new topic
> Systematic Marsmurder - See The Nun Under The Poison Mask! [single] (1991), Death Metal
post Jan 20 2020, 00:52:23
Post #1

Подвал
**************
Group: Металариец
Posts: 14,185
Releases: 8030
From: Far East (Khabarovsk)
On Forums: 11 years 1 month
Thanks: 79487 time(s)
Russian Federation


(IMG:http://metalarea.org/images/audiocovers/2020_Jan/acov_tid332847_thumb.jpg)

*Artist: Systematic Marsmurder
*Album: See The Nun Under The Poison Mask! [single]
*Year: 1991
*Genre: Death Metal
*Country: Germany (IMG:http://metalarea.org/forum/style_images/flags/Germany.png)
*Format: mp3@CBR320kbps
*Size: 40MB

Tracklist:
1. Eines Tages, Wenn Der Große Weiße Arsch Kommt Und Alles Zusammenscheißt, Wirst Auch Du Nicht Entkommen 03:33
2. Free My Pee 02:27
3. Horhorn 01:19
4. S.M. 04:14
5. Break / Silence 03:10
6. Nun With A Poison Mask 01:35
******************************
Total playing time: 16:18



Extended info
Tracks 1 & 2 are studio recordings.
Last 4 songs were recorded Live at AJZ Bielefeld, 19/5/1990.


Technical info
(IMG:http://metalarea.org/images/spectrogram/2020_Jan/34dc2c92ea3982c8c5213d7486975f73.png)
Input File: 01 Eines Tages....mp3
Channels : 2
Sample Rate : 44100
Precision : 16-bit
Duration : 00:03:34.06 = 9440134 samples = 16054.6 CDDA sectors
File Size : 8.72M
Bit Rate : 326k
Sample Encoding: MPEG audio (layer I, II or III)
Comments :
Title=Eines Tages, wenn der grosse weisse Arsch kommt und alles zusammenscheisst, wirst auch Du nicht entkommen
Artist=Systematic Marsmurder
Album=See The Nun Under The Poison Mask! EP
Tracknumber=1
Year=1991
Genre=Death Metal



Register


Go to the top of the page
  Insert nick Quick quote
+Quote Post

Reply to this topicStart new topic
1 User(s) are reading this topic (1 Guests and 0 Anonymous Users)
0 Members:

 



- Lo-Fi Version Support form
Copyrights and abuse reports form
Time is now: 29th February 2020 - 00:32:53