Welcome Guest ( Log In | Register )

> Правила / Rules

Тут только для чтения лежат низкобитрейтные (<192kbps) релизы, для которых есть аналоги в высокобитрейтных форумах.

Here goes (and stand in read only mode) low bitrate releases (<192kbps) which were already replaced by high bitrate releases in corresponding forums.

Причина закрытия (Хогги 13-02-2020):
 
Closed TopicStart new topic
> Syrgjyn - Manifest Of Essence (2010), Death Metal
post Jan 20 2020, 12:07:17
Post #1

Правь статус, ####!111
**************
Group: Металариец
Posts: 6,526
Releases: 6012
From: Lithuania
On Forums: 13 years 10 months
Thanks: 45360 time(s)
Lithuania


(IMG:https://metalarea.org/images/audiocovers/2020_Jan/acov_tid332869_thumb.jpg)

*Artist: Syrgjyn
*Album: Manifest Of Essence
*Year: 2010
*Genre: Death Metal
*Country: Albania (IMG:https://metalarea.org/forum/style_images/flags/Albania.png)
*Format: mp3@CBR128kbps (IMG:https://metalarea.org/images/bit_low.gif)
*Size: 38MB

Tracklist:
1. Prelude to Infinity 03:12
2. An Infinity to Suffer 01:59
3. Oblivion 06:56
4. A Lost Soul and Swallows 05:20
5. Karma Lux (Albageddon) 06:40
6. Djajtë, jo unë... 06:35 (instrumental)
7. Manifest of Essence 05:24
8. Xhehenem * 05:22
******************************
Total playing time: 41:28


(IMG:https://metalarea.org/images/youtube.png)

Technical info
(IMG:https://metalarea.org/images/spectrogram/2020_Jan/11b72444fa8291b7d5aeb137812b693b.png)
Input File: 02 An Infinity To Suffer.mp3
Channels : 2
Sample Rate : 44100
Precision : 16-bit
Duration : 00:01:59.08 = 5251296 samples = 8930.78 CDDA sectors
File Size : 1.91M
Bit Rate : 128k
Sample Encoding: MPEG audio (layer I, II or III)
Comments :
Artist=Syrgjyn
Album=Manifest of Essence
Year=2010
Genre=9



Register


Go to the top of the page
  Insert nick Quick quote
+Quote Post

Причина закрытия (Хогги 13-02-2020):
Closed TopicStart new topic
1 User(s) are reading this topic (1 Guests and 0 Anonymous Users)
0 Members:

 



- Lo-Fi Version Support form
Copyrights and abuse reports form
Time is now: 5th August 2020 - 12:23:36