Welcome Guest ( Log In | Register )

> Правила / Rules

Тут только для чтения лежат низкобитрейтные (<192kbps) релизы, для которых есть аналоги в высокобитрейтных форумах.

Here goes (and stand in read only mode) low bitrate releases (<192kbps) which were already replaced by high bitrate releases in corresponding forums.

Причина закрытия (Хогги 20-01-2020):
 
Closed TopicStart new topic
> Sekeromlat - Sekeromlat [ep] (2019), Black Metal
post Jan 20 2020, 14:45:52
Post #1

Правь статус, ####!111
**************
Group: Металариец
Posts: 6,526
Releases: 6012
From: Lithuania
On Forums: 13 years 10 months
Thanks: 45370 time(s)
Lithuania


(IMG:https://metalarea.org/images/audiocovers/2020_Jan/acov_tid332877_thumb.jpg)

*Artist: Sekeromlat
*Album: Sekeromlat [ep]
*Year: 2019
*Genre: Black Metal
*Country: Czech Republic (IMG:https://metalarea.org/forum/style_images/flags/Czech%20Republic.png)
*Format: mp3@CBR128kbps (IMG:https://metalarea.org/images/bit_low.gif)
*Size: 8MB

Tracklist:
1. Rituály 03:14
2. Fosgen 01:43
3. Staň se bahnem 01:18
4. Satanský džihád 01:14
5. Až vyhasne slunce 01:30
******************************
Total playing time: 8:59


(IMG:https://metalarea.org/images/youtube.png)

Technical info
(IMG:https://metalarea.org/images/spectrogram/2020_Jan/8b949944afabc18a6582fa324203eb96.png)
Input File: 02. Fosgen.mp3
Channels : 2
Sample Rate : 44100
Precision : 16-bit
Duration : 00:01:44.04 = 4588032 samples = 7802.78 CDDA sectors
File Size : 1.69M
Bit Rate : 130k
Sample Encoding: MPEG audio (layer I, II or III)
Comments :
Title=Fosgen
Artist=Sekeromlat
Album=Sekeromlat
Tracknumber=2
Year=2019
Genre=Black Metal



Register
Go to the top of the page
  Insert nick Quick quote
+Quote Post

Причина закрытия (Хогги 20-01-2020):
Closed TopicStart new topic
1 User(s) are reading this topic (1 Guests and 0 Anonymous Users)
0 Members:

 



- Lo-Fi Version Support form
Copyrights and abuse reports form
Time is now: 13th August 2020 - 11:54:47