Welcome Guest ( Log In | Register )

> Releases Upload / Добавление релизов

Добавить релиз тут / Click here to add release
Рекомендованные обменники / Recommended file shares

 
Reply to this topicStart new topic
> F.U.C.K. & Puta Malaria & Porno Fart & Fucking Fart - F.U.C.K./Puta Malaria/Porno Fart/Fucking Fart [split] (2017), Grindcore/Powerviolence | Noisecore | Porno Goregrind | Porno Goregrin
post Jan 20 2020, 15:33:40
Post #1

Serial Uploader
Group Icon
Group: V.I.P
Posts: 37,016
Releases: 35198
From: Lithuania
On Forums: 11 years 8 months
Thanks: 414843 time(s)
Lithuania


(IMG:https://metalarea.org/images/audiocovers/2020_Jan/acov_tid332881_thumb.jpg)

*Artist: F.U.C.K. & Puta Malaria & Porno Fart & Fucking Fart
*Album: F.U.C.K./Puta Malaria/Porno Fart/Fucking Fart [split]
*Year: 2017
*Genre: Grindcore/Powerviolence | Noisecore | Porno Goregrind | Porno Goregrind
*Country: Colombia (IMG:https://metalarea.org/forum/style_images/flags/Colombia.png) | Sweden (IMG:https://metalarea.org/forum/style_images/flags/Sweden.png) | Colombia (IMG:https://metalarea.org/forum/style_images/flags/Colombia.png) | Sweden (IMG:https://metalarea.org/forum/style_images/flags/Sweden.png)
*Format: mp3@CBR320kbps
*Size: 40MB

Tracklist:
F.U.C.K.:
01. Narcocracia 01:08
02. The Procols Of Anti-Sound (Magrudergrind Cover) 01:19
03. Maldito Dinero 00:57
Puta Malaria:
04. Sick Shit 01:14
05. Fuck Your Religion 03:18
06. Brutal Noise Death 00:53
Porno Fart:
07. El Circo De Los Insultos 02:16
08. Pigminator 02:13
09. Ketchup Sex 02:37
Fucking Fart:
10. Trouble In The Ass 00:13
11. Brown Smile 00:16
12. Total Fart Blast 00:19
******************************
Total playing time: 16:43





(IMG:https://metalarea.org/images/youtube.png)

Technical info
(IMG:https://metalarea.org/images/spectrogram/2020_Jan/1f1e086c669bb1508f97e574f1065f6e.png)
Input File: 11. Brown smile.mp3
Channels : 2
Sample Rate : 44100
Precision : 16-bit
Duration : 00:00:17.01 = 749965 samples = 1275.45 CDDA sectors
File Size : 885k
Bit Rate : 416k
Sample Encoding: MPEG audio (layer I, II or III)
Comments :
Title=Brown smile
Artist=Fucking Fart
Album=F.U.C.K. / Puta Malaria / Porno Fart / Fucking Fart - Split
Tracknumber=11
Year=2017



Register


Go to the top of the page
  Insert nick Quick quote
+Quote Post

Reply to this topicStart new topic
1 User(s) are reading this topic (1 Guests and 0 Anonymous Users)
0 Members:

 



- Lo-Fi Version Support form
Copyrights and abuse reports form
Time is now: 24th February 2020 - 00:26:52