Welcome Guest ( Log In | Register )

> Releases Upload / Добавление релизов

Добавить релиз тут / Click here to add release
Рекомендованные обменники / Recommended file shares

 
Reply to this topicStart new topic
> Various Artists - The Mass Murder Split Of 2019 [split] (2019), Brutal Death Metal/Grindcore/Goregrind
post Jan 20 2020, 16:15:45
Post #1

Serial Uploader
Group Icon
Group: V.I.P
Posts: 37,016
Releases: 35198
From: Lithuania
On Forums: 11 years 8 months
Thanks: 414843 time(s)
Lithuania


(IMG:https://metalarea.org/images/audiocovers/2020_Jan/acov_tid332883_thumb.jpg)

*Artist: Various Artists
*Album: The Mass Murder Split Of 2019 [split]
*Year: 2019
*Genre: Brutal Death Metal/Grindcore/Goregrind
*Country: Many (IMG:https://metalarea.org/forum/style_images/flags/Many.png)
*Format: mp3@CBR320kbps
*Size: 179MB

Tracklist:
Laceration Lord:
01. Intro
02. Mass Murder 2019
03. Impaled With A Telephone Pole
Sardonic Wrath:
04. Asphyxiation On Cannibalistic Gore
05. Stop, Drop, And Rot
06. Beneath The Peeling Skin
Perky Macabre:
07. Ungodly Love
08. Empty Vessels In The Witching Hour
09. Morose Implosions
10. Blasphemonious Habituals
11. Into The Bottomless Pit
Mausoleum Of Death:
12. Death Incarnate
13. Odium Manifesto
Ovary Rot:
14. Turn Back
15. Fated Donor Paradox
Goreified:
16. Sexual Dismemberment
17. Leftover Carcass
18. Das Kannibale
Misplaced Cadaver:
19. Deltochilum Valgum
20. Paroxysmal Nocturnal Dyspnea
Reverse Abortion:
21. Amplified Inhumanity
Grimms Eye:
22. Shore
23. Landmines
BARC:
24. Bleeding Goat Syndrome
25. Bad Song Title Syndrome
26. Balls Out Syndrome
Katekhism:
27. Consequence
28. Moral Misery
Varkolak:
29. Your Neanderhoe Is In My Cave
30. Bigfoot's Revenge
31. You Don't Support Cops, You Just Have A Submission Fetish
Gigantopithecus:
32. No One Wants To Hear Your 10 Minute Song About Mountains
33. Anti Krabitalist
34. Cramming A Dropdead Album Up My Ass While Eating McNuggets
Narwhal:
35. No Remorse
36. The Power Of My Lower Intestine
Animus Stench:
37. Burn In Hell With Me
38. The Seven Years
Major Mistake:
39. Psychopathic Control
40. Small Man Big Fist
41. Storm Of Words
Urine:
42. Desires Of A Masochistic Abomination
******************************
Total playing time: 1:17:52







Technical info
(IMG:https://metalarea.org/images/spectrogram/2020_Jan/3128498b5cf3c2e6e740b04f8dad403f.png)
Input File: 06. Beneath The Peeling Skin.mp3
Channels : 2
Sample Rate : 44100
Precision : 16-bit
Duration : 00:01:21.72 = 3603632 samples = 6128.63 CDDA sectors
File Size : 3.43M
Bit Rate : 336k
Sample Encoding: MPEG audio (layer I, II or III)
Comments :
Title=Beneath The Peeling Skin
Artist=Sardonic Wrath
Album=The Mass Murder Split Of 2019 [OFFICIAL SPLIT]
Tracknumber=6
Year=2019



Register


Go to the top of the page
  Insert nick Quick quote
+Quote Post

Reply to this topicStart new topic
1 User(s) are reading this topic (1 Guests and 0 Anonymous Users)
0 Members:

 



- Lo-Fi Version Support form
Copyrights and abuse reports form
Time is now: 24th February 2020 - 00:20:02