Welcome Guest ( Log In | Register )

> Existruth - Revolt From The Abyss (2019), Symphonic Power/Speed Metal
post Jan 22 2020, 08:51:39
Post #1

Правь статус, ####!111
**************
Group: Металариец
Posts: 6,563
Releases: 6039
From: Lithuania
On Forums: 14 years 11 months
Thanks: 46303 time(s)
Lithuania


(IMG:https://metalarea.org/images/audiocovers/2020_Jan/acov_tid332935_thumb.png)

*Artist: Existruth
*Album: Revolt From The Abyss
*Year: 2019
*Genre: Symphonic Power/Speed Metal
*Country: Japan (IMG:https://metalarea.org/forum/style_images/flags/Japan.png)
*Format: mp3@VBR270kbps
*Size: 94MB

Tracklist:
1. Immortal Saga - Again
2. Unleash
3. Glacial White
4. Heaven's Vengeance
5. Enigmatic Method
6. Apocalypse Teller
7. Revolt from the Abyss
8. Deadly force - Put an End
******************************
Total playing time: 47:39


(IMG:https://metalarea.org/images/youtube.png)

Technical info
(IMG:https://metalarea.org/images/spectrogram/2020_Jan/9e6e16127a3909422c38273d45500f00.png)
Input File: 02 Unleash.mp3
Channels : 2
Sample Rate : 44100
Precision : 16-bit
Duration : 00:05:38.21 = 14914929 samples = 25365.5 CDDA sectors
File Size : 11.8M
Bit Rate : 278k
Sample Encoding: MPEG audio (layer I, II or III)
Comments :
Title=Unleash
Artist=ExistRuth
Album=Revolt from the Abyss
Tracknumber=2/8
Year=2019
Genre=9



Register


Go to the top of the page
  Insert nick Quick quote
+Quote Post
 
Start new topic
Replies (1 - 2)
post Jan 22 2020, 12:16:03
Post #2

Три Литра
***
Group: Завсегдатай
Posts: 273
Releases: 0
From: Россия
On Forums: 9 years 7 months
Thanks: 91 time(s)
Russian Federation


Артист: Noah

Go to the top of the page
  Insert nick Quick quote
+Quote Post
post Jan 22 2020, 12:27:13
Post #3

Два Литра
**
Group: Завсегдатай
Posts: 107
Releases: 0
On Forums: 6 years 6 months
Thanks: 81 time(s)
Unknown


ЦИТАТА(Kehl05 @ 22nd January 2020 - 12:16:03) *
Existruth - Revolt From The Abyss

Noah is an indie musician who has won several SOUND VOLTEX contests. He produces rock and game-style music and posts most of his works on his SoundCloud account. He started his own doujin circle project in late 2017, named ExistRuth.


Thanks:
(1) Eisbar,
Go to the top of the page
  Insert nick Quick quote
+Quote Post

Reply to this topicStart new topic
1 User(s) are reading this topic (1 Guests and 0 Anonymous Users)
0 Members:

 



- Lo-Fi Version Support form
Copyrights and abuse reports form
Time is now: 24th September 2021 - 06:44:09