Welcome Guest ( Log In | Register )

> Правила / Rules

Тут только для чтения лежат низкобитрейтные (<192kbps) релизы, для которых есть аналоги в высокобитрейтных форумах.

Here goes (and stand in read only mode) low bitrate releases (<192kbps) which were already replaced by high bitrate releases in corresponding forums.

Причина закрытия (Абигор 28-06-2020): Demólatra - Mayo 54 (2018)
 
Closed TopicStart new topic
> Demólatra - Mayo 54 (2018), Thrash Metal
post Jan 23 2020, 08:45:19
Post #1

Правь статус, ####!111
**************
Group: Металариец
Posts: 6,526
Releases: 6012
From: Lithuania
On Forums: 13 years 10 months
Thanks: 45370 time(s)
Lithuania


(IMG:https://metalarea.org/images/audiocovers/2020_Jan/acov_tid332966_thumb.jpg)

*Artist: Demólatra
*Album: Mayo 54
*Year: 2018
*Genre: Thrash Metal
*Country: Honduras (IMG:https://metalarea.org/forum/style_images/flags/Honduras.png)
*Format: mp3@VBR259kbps
*Size: 60MB

Tracklist:
1. Corporaciòn muerte
2. Condenados al olvido
3. Bastardos
4. Ojos vendados
5. Defendiendo democracias
6. La bestia
7. Mayo 54
******************************
Total playing time: 31:47

(IMG:https://metalarea.org/images/youtube.png)


Technical info
(IMG:https://metalarea.org/images/spectrogram/2020_Jan/d0fb1b0eaa2d57bcba3712e87300bb6e.png)
Input File: 02 Condenados al Olvido.mp3
Channels : 2
Sample Rate : 44100
Precision : 16-bit
Duration : 00:03:49.88 = 10137576 samples = 17240.8 CDDA sectors
File Size : 7.60M
Bit Rate : 264k
Sample Encoding: MPEG audio (layer I, II or III)
Comments :
Title=Condenados al Olvido
Artist=Demólatra
Album=Mayo 54
Tracknumber=2
Year=2018
Genre=(9)



Register


Go to the top of the page
  Insert nick Quick quote
+Quote Post

Причина закрытия (Абигор 28-06-2020): Demólatra - Mayo 54 (2018)
Closed TopicStart new topic
1 User(s) are reading this topic (1 Guests and 0 Anonymous Users)
0 Members:

 



- Lo-Fi Version Support form
Copyrights and abuse reports form
Time is now: 13th August 2020 - 12:47:49