Welcome Guest ( Log In | Register )

> 

Здесь релизы с живыми прямыми ссылками на lossless

> Warloghe - Unlighted [ep] (1997), Black Metal
post Jan 26 2020, 16:38:10
Post #1

the faceless one
Group Icon
Group: S-moderation team
Posts: 9,252
Releases: 1901
On Forums: 11 years 6 months
Thanks: 112996 time(s)
Russian Federation


(IMG:http://metalarea.org/images/audiocovers/2020_Jan/acov_tid333108_thumb.jpg)

*Artist: Warloghe
*Album: Unlighted [ep]
*Year: 1997
*Genre: Black Metal
*Country: Finland (IMG:http://metalarea.org/forum/style_images/flags/Finland.png)
*Format: mp3@CBR320kbps
*Size: 25MB

Tracklist:
1. Waaslandia 06:28
2. Foretold Vast Sorceries Unfold 04:30
******************************
Total playing time: 10:58

Extended info
Было в лоу.

Благодарность за предоставленный Lossless камраду RADeus.


Technical info
(IMG:http://metalarea.org/images/spectrogram/2020_Jan/da5a32cc1a93ed409d8f6cca0eb6e8a3.png)
Input File: 01 - Waaslandia.mp3
Channels : 2
Sample Rate : 44100
Precision : 16-bit
Duration : 00:06:28.46 = 17131174 samples = 29134.6 CDDA sectors
File Size : 15.5M
Bit Rate : 320k
Sample Encoding: MPEG audio (layer I, II or III)
Comments :
Title=Waaslandia
Artist=Warloghe
Album=Unlighted
Tracknumber=1
Year=1997
Genre=Black Metal



Register

Register


Go to the top of the page
  Insert nick Quick quote
+Quote Post
 
Start new topic
Replies (1 - 1)
post Feb 4 2020, 12:14:52
Post #2

Group: Подсевший
Posts: 48
Releases: 0
On Forums: 1 month 1 week
Thanks: 11 time(s)
Unknown


Культовое EP от культовой банды (IMG:style_emoticons/default/true_black.gif)
Go to the top of the page
  Insert nick Quick quote
+Quote Post

Reply to this topicStart new topic
1 User(s) are reading this topic (1 Guests and 0 Anonymous Users)
0 Members:

 



- Lo-Fi Version Support form
Copyrights and abuse reports form
Time is now: 21st February 2020 - 22:52:52