Welcome Guest ( Log In | Register )

> Releases Upload / Добавление релизов

Добавить релиз тут / Click here to add release
Рекомендованные обменники / Recommended file shares

> Foxtale - Знамёна Лисиц [ep] (2019), Epic/Folk Metal
post Jan 26 2020, 19:07:40
Post #1

Каждое ваше "Спасибо" помогает мне понять, что я делаю новости не напрасно.
**************
Group: Металариец
Posts: 2,348
Releases: 2073
From: Одесса
On Forums: 11 years 8 months
Thanks: 18938 time(s)
Ukraine


(IMG:http://metalarea.org/images/audiocovers/2020_Jan/acov_tid333110_thumb.jpg)

*Artist: Foxtale
*Album: Знамёна Лисиц [ep]
*Year: 2019
*Genre: Epic/Folk Metal
*Country: Russian Federation (IMG:http://metalarea.org/forum/style_images/flags/Russian%20Federation.png)
*Format: mp3@CBR320kbps
*Size: 48MB

Tracklist:
1.Знамёна лисиц 05:49
2.Лисий пляс 02:25
3.Голодный тролль 03:39
4.Ragnarök 05:30
5.Лисий пляс 02:25 instrumental
******************************
Total playing time: 19:48

VKontakte

Extended info
Line - up:
Evgeny Alaev - Bass, Vocals (choirs)
Andrey Andreev - Drums
Anatoly Kruglov - Guitars, Vocals (choirs)
Andrey Zagornov - Guitars, Vocals (choirs) (ex-Eldiarn)
Alexander Vasilyev - Vocals (ex-Rewind)

Guest/Session:
Den Groden - Vocals (track 3)
Anastasia Gorshkova - Vocals (track 2)
Anna Erilina - Violin (Beer Bear, ex-Morbid Violence, ex-Equinox (live))

(IMG:https://www.metal-archives.com/images/3/5/4/0/3540411431_photo.jpg?3634)


Technical info
(IMG:http://metalarea.org/images/spectrogram/2020_Jan/21555133c6b7dd6c20a3a1f0c362724b.png)
Input File: 01 - Знамёна Лисиц.mp3
Channels : 2
Sample Rate : 44100
Precision : 16-bit
Duration : 00:05:49.25 = 15402057 samples = 26194 CDDA sectors
File Size : 14.0M
Bit Rate : 320k
Sample Encoding: MPEG audio (layer I, II or III)
Comments :
Title=Знамёна Лисиц
Artist=FoxTale
Album=Знамёна Лисиц (EP)
Tracknumber=1
Year=2019
Genre=Epic/Folk Metal



Register


Go to the top of the page
  Insert nick Quick quote
+Quote Post
 
Start new topic
Replies (1 - 2)
post Jan 27 2020, 22:30:37
Post #2

Шесть Литров
******
Group: Металариец
Posts: 544
Releases: 26
On Forums: 10 years 9 months
Thanks: 549 time(s)
Chile


Thanks (IMG:style_emoticons/default/dwarf-1.gif)
Go to the top of the page
  Insert nick Quick quote
+Quote Post
post Feb 2 2020, 16:15:27
Post #3

Перевозчик
**************
Group: Металариец
Posts: 3,114
Releases: 0
On Forums: 11 years 7 months
Thanks: 684 time(s)
Russian Federation


Go to the top of the page
  Insert nick Quick quote
+Quote Post

Reply to this topicStart new topic
1 User(s) are reading this topic (1 Guests and 0 Anonymous Users)
0 Members:

 



- Lo-Fi Version Support form
Copyrights and abuse reports form
Time is now: 25th February 2020 - 12:42:40