Welcome Guest ( Log In | Register )

> Clumps Of Flesh - Cut​-Up​ Crackhead Slut (2019), Brutal Death Metal/Goregrind
post Jan 28 2020, 16:15:05
Post #1

Serial Uploader
Group Icon
Group: V.I.P
Posts: 37,112
Releases: 35296
From: Lithuania
On Forums: 11 years 9 months
Thanks: 418150 time(s)
Lithuania


(IMG:https://metalarea.org/images/audiocovers/2020_Jan/acov_tid333185_thumb.jpg)

*Artist: Clumps Of Flesh
*Album: Cut​-Up​ Crackhead Slut
*Year: 2019
*Genre: Brutal Death Metal/Goregrind
*Country: United States (IMG:https://metalarea.org/forum/style_images/flags/United%20States.png)
*Format: mp3@CBR320kbps
*Size: 57MB

Tracklist:
01. Addicted To Carnal Corpse Parts 03:08
02. Tied-Up And Slowly Dismembered 04:17
03. Strangled And Molested 02:14
04. Sandblasted Internal Organs 03:24
05. Cannibalized Shredded Vulva 02:57
06. Deranged From Murder 01:28
07. Pulverized Whore All Over The Floor 02:39
08. Carnage 01:05
09. Impaled Hooker Torso Bleeding Out On Meathooks 03:18
******************************
Total playing time: 24:30



Technical info
(IMG:https://metalarea.org/images/spectrogram/2020_Jan/a67085ceaa5d81ef6d7de87e77fe50de.png)
Input File: 02. Tied-Up and Slowly Dismembered.mp3
Channels : 2
Sample Rate : 44100
Precision : 16-bit
Duration : 00:04:17.63 = 11361615 samples = 19322.5 CDDA sectors
File Size : 10.4M
Bit Rate : 324k
Sample Encoding: MPEG audio (layer I, II or III)
Comments :
Title=Tied-Up and Slowly Dismembered
Artist=Clumps of Flesh
Album=Cut-up Crackhead Slut
Tracknumber=2
Year=2019



Register


Go to the top of the page
  Insert nick Quick quote
+Quote Post
 
Start new topic
Replies (1 - 1)
post Mar 25 2020, 23:47:13
Post #2

Group: Подсевший
Posts: 39
Releases: 0
On Forums: 6 years 6 months
Thanks: 3 time(s)
Peru


re-up please
Go to the top of the page
  Insert nick Quick quote
+Quote Post

Reply to this topicStart new topic
2 User(s) are reading this topic (2 Guests and 0 Anonymous Users)
0 Members:

 



- Lo-Fi Version Support form
Copyrights and abuse reports form
Time is now: 3rd April 2020 - 18:06:42