Welcome Guest ( Log In | Register )

> Mulla - مَوْلَى (2020), Black Metal
post Jan 28 2020, 16:42:04
Post #1

Serial Uploader
Group Icon
Group: V.I.P
Posts: 37,112
Releases: 35296
From: Lithuania
On Forums: 11 years 9 months
Thanks: 418090 time(s)
Lithuania


(IMG:https://metalarea.org/images/audiocovers/2020_Jan/acov_tid333187_thumb.jpg)

*Artist: Mulla
*Album: مَوْلَى
*Year: 2020
*Genre: Black Metal
*Country: Iraq (IMG:https://metalarea.org/forum/style_images/flags/Iraq.png)
*Format: mp3@CBR320kbps
*Size: 73MB

Tracklist:
01. يمكن 05:01
02. يا إلهي 06:54
03. من الروح 05:37
04. منا 06:31
05. الليل 07:38
******************************
Total playing time: 31:41


(IMG:https://metalarea.org/images/youtube.png)

Technical info
(IMG:https://metalarea.org/images/spectrogram/2020_Jan/5572e3dc9177d775f3fd6b8ed9a50e50.png)
Input File: Mulla - مَوْلَى - 02 يا إلهي.mp3
Channels : 2
Sample Rate : 44100
Precision : 16-bit
Duration : 00:06:54.93 = 18298193 samples = 31119.4 CDDA sectors
File Size : 16.7M
Bit Rate : 322k
Sample Encoding: MPEG audio (layer I, II or III)
Comments :
Title=يا إلهي
Artist=Mulla
Album=مَوْلَى
Tracknumber=2
Year=2020



Register


Go to the top of the page
  Insert nick Quick quote
+Quote Post
2 Pages V  < 1 2  
Start new topic
Replies (30 - 30)
post Feb 4 2020, 12:43:46
Post #31

Group: Подсевший
Posts: 48
Releases: 0
On Forums: 2 months 2 weeks
Thanks: 13 time(s)
Unknown


Слишком много шума вокруг них. По музыки просто БМ среднего разлива и не более. Таких банд/проектов сотни и сотни, эти выделились лишь своим местонахождением и оформлением. Будь это записано в штатах, европе или на пост советском пространстве, внимание бы обратили несколько страждущих калек. Короче пустышка и не более.
p.s. Хочется ближневосточного колорита в музыке тогда это к Al-Namrod и к записям ливанского Аят (хотя у последних откровенной арабщины маловато было)


Thanks:
(1) Ghostb,
Go to the top of the page
  Insert nick Quick quote
+Quote Post

2 Pages V  < 1 2
Reply to this topicStart new topic
2 User(s) are reading this topic (2 Guests and 0 Anonymous Users)
0 Members:

 



- Lo-Fi Version Support form
Copyrights and abuse reports form
Time is now: 1st April 2020 - 18:49:33