Welcome Guest ( Log In | Register )

> И неформату есть предел.

Рэп/хип-хоп/шансон/поп удаляются. Для них есть свои порталы.

> Spiny Normen - Spiny Normen (2018), Acid/Psychedelic/Progressive Rock
post Jan 28 2020, 19:18:29
Post #1

Правь статус, ####!111
**************
Group: Металариец
Posts: 45,123
Releases: 695
On Forums: 10 years 8 months
Thanks: 36848 time(s)
Russian Federation


(IMG:http://metalarea.org/images/audiocovers/2020_Jan/acov_tid333193_thumb.jpg)

*Artist: Spiny Normen
*Album: Spiny Normen
*Year: 2018
*Genre: Acid/Psychedelic/Progressive Rock
*Country: United States (IMG:http://metalarea.org/forum/style_images/flags/United%20States.png)
*Format: mp3@CBR320kbps
*Size: 97MB

Tracklist:
1. Arrowhead 03:10
2. Wrecko Wild Man Ride 04:49
3. Carry Your Water 05:34
4. The MonkeyWeasel 06:14
5. To Meet The Mad Hatter 06:59
6. The Bell Park Loon 03:56
7. In The Darkness of Night 03:38
8. The Sound of Younger Times 08:03
******************************
Total playing time: 42:23



Technical info
(IMG:http://metalarea.org/images/spectrogram/2020_Jan/da40a541a0e68593a69f29b1ec97b0b6.png)
Input File: 01 - Arrowhead.mp3
Channels : 2
Sample Rate : 44100
Precision : 16-bit
Duration : 00:03:10.89 = 8418249 samples = 14316.8 CDDA sectors
File Size : 7.70M
Bit Rate : 323k
Sample Encoding: MPEG audio (layer I, II or III)
Comments :
Title=Arrowhead
Artist=Spiny NormEn
Album=Spiny Normen (Spiny Normen)
Tracknumber=1
Year=2018-03-02
Genre=Rock
Discnumber=1



Register


Go to the top of the page
  Insert nick Quick quote
+Quote Post
 
Start new topic
Replies (1 - 2)
post Jan 29 2020, 08:14:31
Post #2

Правь статус, ####!111
**************
Group: Металариец
Posts: 45,123
Releases: 695
On Forums: 10 years 8 months
Thanks: 36848 time(s)
Russian Federation


Сей чудесный альбом с завораживающей насквозь пропсиходеличенной атмосферой был записан в середине 70-х, но вышел недавно. Палитра инструментов широка, настроение разнообразно, а качество каждого трэка высоко.

Крутейший релиз, впрочем Riding Easy фигни не выпускает.
Go to the top of the page
  Insert nick Quick quote
+Quote Post
post Jan 29 2020, 18:14:27
Post #3

Правь статус, ####!111
**************
Group: Металариец
Posts: 45,123
Releases: 695
On Forums: 10 years 8 months
Thanks: 36848 time(s)
Russian Federation


FLAC от Самаритянина (IMG:style_emoticons/default/pray.gif)

Register
Go to the top of the page
  Insert nick Quick quote
+Quote Post

Reply to this topicStart new topic
1 User(s) are reading this topic (1 Guests and 0 Anonymous Users)
0 Members:

 



- Lo-Fi Version Support form
Copyrights and abuse reports form
Time is now: 25th February 2020 - 01:16:34