Welcome Guest ( Log In | Register )

> Deathwhite - Grave Image (2020), Melodic Doom/Gothic Metal
post Jan 30 2020, 12:47:16
Post #1

Правь статус, ####!111
**************
Group: Металариец
Posts: 22,292
Releases: 15430
From: Г.Харьков
On Forums: 8 years 1 month
Thanks: 282370 time(s)
Unknown


(IMG:http://metalarea.org/images/audiocovers/2020_Jan/acov_tid333247_thumb.jpg)

*Artist: Deathwhite
*Album: Grave Image
*Year: 2020
*Genre: Melodic Doom/Gothic Metal
*Country: United States (IMG:http://metalarea.org/forum/style_images/flags/United%20States.png)
*Format: mp3@CBR320kbps
*Size: 112MB

Tracklist:
1. Funeral Ground
2. In Eclipse
3. Further from Salvation
4. Grave Image
5. Among Us
6. Words of Dead Men
7. No Horizon
8. Plague of Virtue
9. A Servant
10. Return to Silence
******************************
Total playing time: 48:43




Extended info
AM Drums
LM Vocals, Guitars


Technical info
(IMG:http://metalarea.org/images/spectrogram/2020_Jan/02460ec0f29be6033f3dd9abf8262fb2.png)
Input File: 05 Among Us.mp3
Channels : 2
Sample Rate : 44100
Precision : 16-bit
Duration : 00:04:10.66 = 11054018 samples = 18799.4 CDDA sectors
File Size : 10.0M
Bit Rate : 320k
Sample Encoding: MPEG audio (layer I, II or III)
Comments :
Title=Among Us
Artist=Deathwhite
Album=Grave Image
Tracknumber=05/10
Year=2020-20-20
Discnumber=1/1



Register


Go to the top of the page
  Insert nick Quick quote
+Quote Post
 
Start new topic
Replies (1 - 4)
post Jan 30 2020, 14:29:43
Post #2

Правь статус, ####!111
**************
Group: Металариец
Posts: 22,292
Releases: 15430
From: Г.Харьков
On Forums: 8 years 1 month
Thanks: 282370 time(s)
Unknown


Cloud Mail 320
Register



Go to the top of the page
  Insert nick Quick quote
+Quote Post
post Feb 4 2020, 12:09:16
Post #3

Шесть Литров
******
Group: Металариец
Posts: 607
Releases: 5
From: Ивантеевка, Московская область
On Forums: 12 years 6 months
Thanks: 222 time(s)
Russian Federation


Вроде бы и всё хорошо. Но как-то тускло, не вдохновляет совсем. (IMG:style_emoticons/default/smile2.gif)
Go to the top of the page
  Insert nick Quick quote
+Quote Post
post Feb 7 2020, 02:08:22
Post #4

Ъ
**************
Group: Металариец
Posts: 10,140
Releases: 9
On Forums: 11 years 5 months
Thanks: 2038 time(s)
Sweden


Осилил пол альбома, по ощущениям все как один трек.
Go to the top of the page
  Insert nick Quick quote
+Quote Post
post Jun 30 2020, 16:52:08
Post #5

Кожаный ублюдок
**************
Group: Металариец
Posts: 3,227
Releases: 6
From: Алчевск (early) Некросибирск (now)
On Forums: 11 years 2 months
Thanks: 2041 time(s)
Russian Federation


Go to the top of the page
  Insert nick Quick quote
+Quote Post

Reply to this topicStart new topic
2 User(s) are reading this topic (2 Guests and 0 Anonymous Users)
0 Members:

 



- Lo-Fi Version Support form
Copyrights and abuse reports form
Time is now: 8th July 2020 - 23:25:11