Welcome Guest ( Log In | Register )

> Releases Upload / Добавление релизов

Добавить релиз тут / Click here to add release
Рекомендованные обменники / Recommended file shares

> Dark Matter - Nebula To Black Hole (2020), Atmospheric Doom Metal (D5)
post Jan 30 2020, 13:10:38
Post #1

Serial Uploader
Group Icon
Group: V.I.P
Posts: 37,016
Releases: 35198
From: Lithuania
On Forums: 11 years 8 months
Thanks: 414866 time(s)
Lithuania


(IMG:http://metalarea.org/images/audiocovers/2020_Jan/acov_tid333251_thumb.jpg)

*Artist: Dark Matter
*Album: Nebula To Black Hole
*Year: 2020
*Genre: Atmospheric Doom Metal
*Country: Iran (IMG:http://metalarea.org/forum/style_images/flags/Iran.png)
*Format: mp3@CBR320kbps
*Size: 91MB

Tracklist:
01. Except Love
02. Earthless Child
03. Theory of X
04. Imperfect Universe
05. Void Wor(L)D
06. Funeral Pt1
07. Funeral Pt2
08. Black Hole
******************************
Total playing time: 39:35




Technical info
(IMG:http://metalarea.org/images/spectrogram/2020_Jan/5402e17974c2bf24304728a3b35ed26a.png)
Input File: 04 - Imperfect Universe.mp3
Channels : 2
Sample Rate : 44100
Precision : 16-bit
Duration : 00:03:20.63 = 8847959 samples = 15047.5 CDDA sectors
File Size : 8.05M
Bit Rate : 321k
Sample Encoding: MPEG audio (layer I, II or III)
Comments :
Title=Imperfect Universe
Artist=Dark Matter/Tomasz Pilasiewicz/Deha
Album=Nebula to Black Hole
Tracknumber=4
Year=2020
Genre=Rock/Metal
Discnumber=1



Register


Go to the top of the page
  Insert nick Quick quote
+Quote Post
 
Start new topic
Replies (1 - 1)
post Feb 18 2020, 17:44:21
Post #2

Два Литра
**
Group: Завсегдатай
Posts: 103
Releases: 0
On Forums: 10 years 10 months
Thanks: 12 time(s)
Russian Federation


отлично же...7 трек погрузил в атмосферу и прибил гроулом. Женский вокал чист и воздушен. Качество записи просто отличное. Ознакомится рекомендую, если женский войс не напрягает.
Go to the top of the page
  Insert nick Quick quote
+Quote Post

Reply to this topicStart new topic
1 User(s) are reading this topic (1 Guests and 0 Anonymous Users)
0 Members:

 



- Lo-Fi Version Support form
Copyrights and abuse reports form
Time is now: 24th February 2020 - 08:45:18