Welcome Guest ( Log In | Register )

> Goat Rider - High Speed From Hell (2020), Blackened Speed/Thrash Metal
post Jan 31 2020, 20:31:37
Post #1

Правь статус, ####!111
**************
Group: Металариец
Posts: 25,789
Releases: 18466
From: Г.Харьков
On Forums: 8 years 11 months
Thanks: 364667 time(s)
Unknown


(IMG:http://metalarea.org/images/audiocovers/2020_Jan/acov_tid333302_thumb.jpg)

*Artist: Goat Rider
*Album: High Speed From Hell
*Year: 2020
*Genre: Blackened Speed/Thrash Metal
*Country: Costa Rica (IMG:http://metalarea.org/forum/style_images/flags/Costa%20Rica.png)
*Format: mp3@CBR320kbps
*Size: 52MB

Tracklist:
01. Intro - Black Horn
02. Blasphemy
03. Sadistic Aggressor
04. Satan's Son 666
05. CryBaby
06. Hail Bathory
07. When the Midnight Comes
08. High Speed from Hell
09. 666
******************************
Total playing time: 24:23



Extended info
Anthony Umaña
Christo Vega


Technical info
(IMG:http://metalarea.org/images/spectrogram/2020_Jan/7857591e00a715fdbcaac3c7faa6498c.png)
Input File: 04. Satan\'s Son 666.mp3
Channels : 2
Sample Rate : 44100
Precision : 16-bit
Duration : 00:04:19.07 = 11425119 samples = 19430.5 CDDA sectors
File Size : 10.5M
Bit Rate : 325k
Sample Encoding: MPEG audio (layer I, II or III)
Comments :
Title=Satan's Son 666
Artist=Goat Rider
Album=High Speed from Hell
Tracknumber=4/9
Year=2020
Genre=9
Discnumber=1/1



Register


Go to the top of the page
  Insert nick Quick quote
+Quote Post
 
Start new topic
Replies (1 - 2)
post Feb 1 2020, 00:04:23
Post #2

Литр
*
Group: Подсевший
Posts: 85
Releases: 0
On Forums: 3 years 7 months
Thanks: 61 time(s)
NATO


Riding goats seems to be en vogue these days.
Goat Rider (GER) - Demo 02,2019

Goatriders (SWE)


A bit older (2013):
Tijuana Goat Ride (USA)


Go to the top of the page
  Insert nick Quick quote
+Quote Post
post Feb 2 2020, 22:24:53
Post #3

Шесть Литров
******
Group: Металариец
Posts: 608
Releases: 1
From: АР Крым, Симферополь
On Forums: 13 years 2 weeks
Thanks: 309 time(s)
Russian Federation


Вообще ништяк темка, бодрячком, угар, забой и рок энд ролл!! В лучших традициях ранних Токсичных Холокостов!! (IMG:style_emoticons/default/metaler.gif) (IMG:style_emoticons/default/25.gif)


Thanks:
Go to the top of the page
  Insert nick Quick quote
+Quote Post

Reply to this topicStart new topic
2 User(s) are reading this topic (2 Guests and 0 Anonymous Users)
0 Members:

 



- Lo-Fi Version Support form
Copyrights and abuse reports form
Time is now: 19th April 2021 - 10:18:41