Welcome Guest ( Log In | Register )

> Doden Grotte & Fullmoon Cult - Summon The Wolves Of War [split] (2020), Black Metal | Black Metal (D4)
post Feb 1 2020, 15:35:36
Post #1

неделимое
******
Group: Металариец
Posts: 600
Releases: 35
On Forums: 8 years 8 months
Thanks: 928 time(s)
Russian Federation


(IMG:http://metalarea.org/images/audiocovers/2020_Feb/acov_tid333334_thumb.jpg)

*Artist: Doden Grotte & Fullmoon Cult
*Album: Summon The Wolves Of War [split]
*Year: 2020
*Genre: Black Metal | Black Metal
*Country: Russian Federation (IMG:http://metalarea.org/forum/style_images/flags/Russian%20Federation.png) | Greece (IMG:http://metalarea.org/forum/style_images/flags/Greece.png)
*Format: mp3@CBR320kbps
*Size: 100MB

Tracklist:
Doden Grotte:
1. Summoned From Eternity 04:09
2. Kharismatic Opus 05:12
3. Gott Ist Tot 04:29
4. Dark Goddess Ov Black Metal 06:41
5. Ψαλμοκαταρα 04:06
6. The Castle Of Horror (Baal Zebuth Cover) 02:29
Fullmoon Cult:
7. The Invocation Of Exiled Lord 04:50
8. Disciples Of Black Cult 03:49
9. Enlighten My Path 05:54
10. We're Satan's Generation (Impaled Nazarene Cover) 02:19
******************************
Total playing time: 43:58




Technical info
(IMG:http://metalarea.org/images/spectrogram/2020_Feb/3c790de43f7ff0ac1699061b38ae4b02.png)
Input File: 02. Kharismatic Opus.mp3
Channels : 2
Sample Rate : 44100
Precision : 16-bit
Duration : 00:05:12.42 = 13777502 samples = 23431.1 CDDA sectors
File Size : 12.5M
Bit Rate : 320k
Sample Encoding: MPEG audio (layer I, II or III)



Register


Go to the top of the page
  Insert nick Quick quote
+Quote Post
 
Start new topic
Replies (1 - 2)
post Feb 2 2020, 16:53:21
Post #2

De Mysteriis Dom Sathanas
**************
Group: Металариец
Posts: 3,991
Releases: 63
From: Doom
On Forums: 11 years 11 months
Thanks: 3395 time(s)
Russian Federation


Греки на первый взгляд неплохи, кавер хорош, хотя и не люблю поздний Импалед... буду слушать


Thanks:
(1) Occultas,
Go to the top of the page
  Insert nick Quick quote
+Quote Post
post Feb 9 2020, 21:07:52
Post #3

Group: Подсевший
Posts: 48
Releases: 0
From: indark
On Forums: 4 years 6 months
Thanks: 9 time(s)
Unknown


Греки хороши, как по ГОСТу. Особенно "Enlighten My Path" удалась.


Thanks:
(1) Occultas,
Go to the top of the page
  Insert nick Quick quote
+Quote Post

Reply to this topicStart new topic
1 User(s) are reading this topic (1 Guests and 0 Anonymous Users)
0 Members:

 



- Lo-Fi Version Support form
Copyrights and abuse reports form
Time is now: 10th July 2020 - 09:40:41