Welcome Guest ( Log In | Register )

> Releases Upload / Добавление релизов

Добавить релиз тут / Click here to add release
Рекомендованные обменники / Recommended file shares

> Mons Veneris - My Dark Perpetual Winter [ep] (2019), Black Metal (D)
post Feb 2 2020, 04:49:03
Post #1

Правь статус, ####!111
**************
Group: Металариец
Posts: 4,281
Releases: 1191
From: Brazil
On Forums: 8 years 2 months
Thanks: 44273 time(s)
Brazil


(IMG:https://metalarea.org/images/audiocovers/2020_Feb/acov_tid333356_thumb.jpg)

*Artist: Mons Veneris
*Album: My Dark Perpetual Winter [ep]
*Year: 2019
*Genre: Black Metal
*Country: Portugal (IMG:https://metalarea.org/forum/style_images/flags/Portugal.png)
*Format: mp3@VBR240kbps
*Size: 41MB

Tracklist:
1. My Dark Perpetual Winter
2. The Nightsky Spectres
3. His Infernal Essence
******************************
Total playing time: 22:19

Extended info
Harvest of Death


Technical info
(IMG:https://metalarea.org/images/spectrogram/2020_Feb/e614dbcd061409dcf449ca9a4390221e.png)
Input File: 02 The Nightsky Spectres.mp3
Channels : 2
Sample Rate : 44100
Precision : 16-bit
Duration : 00:04:56.33 = 13068285 samples = 22225 CDDA sectors
File Size : 10.8M
Bit Rate : 291k
Sample Encoding: MPEG audio (layer I, II or III)
Comments :
Title=The Nightsky Spectres
Artist=Mons Veneris
Album=My Dark Perpetual Winter
Tracknumber=2/3
Year=2019
Genre=Black Metal
Discnumber=1/1



Register


Go to the top of the page
  Insert nick Quick quote
+Quote Post
 
Start new topic
Replies (1 - 4)
post Feb 2 2020, 16:52:28
Post #2


**************
Group: Металариец
Posts: 2,228
Releases: 14
From: Казань
On Forums: 10 years 6 months
Thanks: 2998 time(s)
Russian Federation


Блуждания Mons Veneris в постоянных экспериментах музыкального Яда, в этот раз синтезировали две Величины наркотического опиата - хоралы и неспешность ритуалов Ordem Satânica и заупокойную Trono Além Morte с ее эклектичной одержимостью в псалмах наподобие Tenebroso Silencio.
Все это - организм Единого целого, но все же граммов безумия стало меньше. Земных граммов безумия, транспортировавшихся в неведомое экзистенциальное нЕчто, что в восприятии играет роль наркотической лета(у)ргии(The Nightsky Spectres) , адептов, тихо посходивших с ума от невероятного количества транквилизаторов.
Резюмируя Опус - думается, он играет роль некой ремиссии, перед Следующим Восприятием, которое не заставит себя ждать -долго, ибо всегда нужна Подпитка.


Go to the top of the page
  Insert nick Quick quote
+Quote Post
post Feb 4 2020, 13:08:42
Post #3

Group: Подсевший
Posts: 48
Releases: 0
On Forums: 2 months 2 weeks
Thanks: 13 time(s)
Unknown


Очень оригинальный релиз от такого многогранного проекта как Mons Veneris воспринимается как промежуточная работа между тем что было и тем что будет. Музыка (музыка ли?) не для всех. Макальные ритуалы для тех кто умеет не только слушать, но и слышать. Как всегда вне оценок.


Thanks:
(1) sethurius,
Go to the top of the page
  Insert nick Quick quote
+Quote Post
post Feb 4 2020, 17:52:56
Post #4


**************
Group: Металариец
Posts: 2,228
Releases: 14
From: Казань
On Forums: 10 years 6 months
Thanks: 2998 time(s)
Russian Federation


ЦИТАТА(Cosmic_Sorcerer @ Feb 4 2020, 15:08:42) *
Музыка (музыка ли?) не для всех. Макальные ритуалы для тех кто умеет не только слушать, но и слышать. Как всегда вне оценок.



Как и любое Издание от Signal Rex, Black Gangrene, Purodium и иже с Ними
Go to the top of the page
  Insert nick Quick quote
+Quote Post
post Feb 4 2020, 19:12:16
Post #5

Мегаманьяк
***********
Group: Металариец
Posts: 1,569
Releases: 24
From: Spain
On Forums: 12 years 7 months
Thanks: 1246 time(s)
Spain


Register
Go to the top of the page
  Insert nick Quick quote
+Quote Post

Reply to this topicStart new topic
2 User(s) are reading this topic (2 Guests and 0 Anonymous Users)
0 Members:

 



- Lo-Fi Version Support form
Copyrights and abuse reports form
Time is now: 1st April 2020 - 19:19:18