Welcome Guest ( Log In | Register )

> Releases Upload / Добавление релизов

Добавить релиз тут / Click here to add release
Рекомендованные обменники / Recommended file shares

> Front Beast - Shadows [ep] (2019), Black Metal (D)
post Feb 3 2020, 11:37:13
Post #1

Три Литра
***
Group: Завсегдатай
Posts: 224
Releases: 164
From: Bergen
On Forums: 8 years 10 months
Thanks: 4242 time(s)
Norway


(IMG:https://metalarea.org/images/audiocovers/2020_Feb/acov_tid333397_thumb.jpg)

*Artist: Front Beast
*Album: Shadows [ep]
*Year: 2019
*Genre: Black Metal
*Country: Germany (IMG:https://metalarea.org/forum/style_images/flags/Germany.png)
*Format: mp3@CBR320kbps
*Size: 57MB

Tracklist:
1. Satan
2. Taken To The Abyss
3. Circle Of Dancing Shadows
4. Morbid Visions
5. Wolf's Howl
6. A Life Beyond
******************************
Total playing time: 21:32

Technical info
(IMG:https://metalarea.org/images/spectrogram/2020_Feb/7891d81a3dd27fa2435f54cda8be3004.png)
Input File: 06-A_Life_Beyond.mp3
Channels : 2
Sample Rate : 48000
Precision : 16-bit
Duration : 00:04:24.17 = 12680208 samples ~ 19812.8 CDDA sectors
File Size : 10.6M
Bit Rate : 320k
Sample Encoding: MPEG audio (layer I, II or III)
Comments :
Title=A Life Beyond
Artist=Front Beast
Album=Shadows
Tracknumber=06/06
Year=2019
Genre=Black Metal



Register


Go to the top of the page
  Insert nick Quick quote
+Quote Post
 
Start new topic
Replies (1 - 2)
post Feb 4 2020, 01:11:43
Post #2

Маньяк
**********
Group: Металариец
Posts: 1,024
Releases: 373
On Forums: 9 years 4 months
Thanks: 8548 time(s)
Eritrea


Preview
Go to the top of the page
  Insert nick Quick quote
+Quote Post
post Feb 4 2020, 13:13:52
Post #3

Group: Подсевший
Posts: 48
Releases: 0
On Forums: 2 months 2 weeks
Thanks: 13 time(s)
Unknown


Блэко/Треш на олдскульном саунде, не лишенный мелодизма, хлесткости и очень качёвый (IMG:style_emoticons/default/metaler.gif)


Thanks:
(1) DarkHorde,
Go to the top of the page
  Insert nick Quick quote
+Quote Post

Reply to this topicStart new topic
2 User(s) are reading this topic (2 Guests and 0 Anonymous Users)
0 Members:

 



- Lo-Fi Version Support form
Copyrights and abuse reports form
Time is now: 1st April 2020 - 17:55:05